<?xml version="1.0" standalone="no"?>
<!DOCTYPE svg PUBLIC "-//W3C//DTD SVG 1.1//EN" "http://www.w3.org/Graphics/SVG/1.1/DTD/svg11.dtd" >
<svg xmlns="http://www.w3.org/2000/svg" xmlns:xlink="http://www.w3.org/1999/xlink" version="1.1">
<metadata>
Created by FontForge 20201107 at Mon Aug 18 09:12:18 2025
 By 
</metadata>
<defs>
<font id="Maglite-Regular" horiz-adv-x="1171" >
  <font-face 
    font-family="Maglite"
    font-weight="400"
    font-stretch="normal"
    units-per-em="2048"
    panose-1="0 0 0 0 0 0 0 0 0 0"
    ascent="1536"
    descent="-512"
    x-height="1024"
    cap-height="1434"
    bbox="-1118 -948 3994 1823"
    underline-thickness="102"
    underline-position="-255"
    unicode-range="U+000D-FB02"
  />
<missing-glyph horiz-adv-x="1024" 
 />
    <glyph glyph-name="fi" unicode="fi" horiz-adv-x="1277" 
d="M358 1010v-885q0 -50 26 -80.5t69 -30.5h51v-14h-453v14h62q43 0 68.5 30.5t25.5 80.5v885h-152l2 14h150v55q0 105 32.5 187t85 129.5t113 71.5t123.5 24q98 0 156.5 -49.5t58.5 -108.5q0 -40 -23 -63t-53 -23t-50.5 22.5t-20.5 61.5q0 60 -31.5 96.5t-75.5 36.5
q-65 0 -114.5 -76.5t-49.5 -222.5v-141h273v-14h-273zM926 1126l-6 13q59 30 59 57q0 14 -29.5 48.5t-29.5 62.5q0 32 26 51.5t62 19.5q32 0 55.5 -21t23.5 -61q0 -26 -9 -48t-30 -41t-35 -29t-46 -28.5t-41 -23.5zM1077 1047v-918q0 -53 31.5 -84t83.5 -31h35v-14h-453v14
h37q53 0 84 31t31 84v766q0 52 -31 78.5t-82 17.5h-4v15z" />
    <glyph glyph-name="fl" unicode="fl" horiz-adv-x="1298" 
d="M1098 1186v-1057q0 -52 30.5 -83.5t81.5 -31.5h37v-14h-452v14h36q51 0 83 31.5t32 83.5v1059q0 184 -87 287.5t-206 103.5q-120 0 -207.5 -104t-87.5 -289v-162h273v-14h-273v-885q0 -50 26 -80.5t69 -30.5h51v-14h-453v14h62q43 0 68.5 30.5t25.5 80.5v885h-152l2 14
h150v162q0 79 25 145.5t68 114t100 80.5t121 49t132 16q67 0 131 -16t121 -49t100 -80.5t68 -114t25 -145.5z" />
    <glyph glyph-name="l_i_t" unicode="lit" horiz-adv-x="1832" 
d="M1288 182v824h-143v4l-2 14q147 3 232 98t85 228q0 64 -20.5 125.5t-65.5 119t-109 100.5t-158.5 69t-207.5 26q-106 0 -201 -36t-172.5 -107t-123.5 -190t-46 -271v-1057q0 -52 31 -83.5t82 -31.5h37v-14h-453v14h37q51 0 83 31.5t32 83.5v1057q0 155 58 277t155 195
t215.5 110.5t249.5 37.5q166 0 297 -39t208.5 -103.5t117.5 -141.5t40 -160q0 -118 -76 -211.5t-210 -126.5h489v-18h-309v-818q0 -85 31.5 -129.5t84.5 -44.5q59 0 124 57.5t112 161.5l12 -8q-61 -128 -146 -192t-169 -64q-85 0 -143 59t-58 154zM754 1139q59 30 59 57
q0 14 -29.5 48.5t-29.5 62.5q0 32 26 51.5t62 19.5q32 0 56 -21t24 -61q0 -26 -9 -48t-30.5 -41t-35.5 -29t-46 -28t-41 -24zM911 129q0 -53 31.5 -84t83.5 -31h35v-14h-453v14h37q53 0 84 31t31 84v766q0 52 -31 78.5t-82 17.5h-4v15l268 41v-918z" />
    <glyph glyph-name="t_i_l" unicode="til" horiz-adv-x="1832" 
d="M1481 129v1057q0 124 -34.5 226.5t-93 172t-137.5 117t-166 69t-180 21.5q-111 0 -216 -31.5t-187 -87t-132 -140t-50 -183.5q0 -133 85 -228t232 -98h35v-18h-309v-818q0 -85 31.5 -129.5t84.5 -44.5q59 0 124 57.5t112 161.5l12 -8q-61 -128 -146 -192t-169 -64
q-85 0 -143 59t-58 154v824h-143v18h454q-136 33 -212 126.5t-76 211.5q0 102 58 188t154.5 142t219.5 87t254 31q113 0 219.5 -22.5t203 -72t168 -121t114 -176.5t42.5 -232v-1057q0 -52 31 -83.5t82 -31.5h39v-14h-453v14h35q51 0 83 31.5t32 83.5zM918 1139q59 30 59 57
q0 14 -29.5 48.5t-29.5 62.5q0 32 26 51.5t62 19.5q32 0 55.5 -21t23.5 -61q0 -26 -9 -48t-30 -41t-35 -29t-46 -28.5t-41 -23.5zM1075 129q0 -53 31.5 -84t83.5 -31h35v-14h-453v14h37q53 0 84 31t31 84v766q0 52 -31 78.5t-82 17.5h-4v15l268 41v-918z" />
    <glyph glyph-name="n_e_f" unicode="nef" horiz-adv-x="2897" 
d="M1010 801q0 -78 -17.5 -154t-42.5 -139.5t-50 -127.5t-42.5 -142.5t-17.5 -159.5q0 -114 39.5 -211t108 -166.5t160 -119t197 -73.5t218.5 -24q127 0 249 30.5t232 95t193.5 157t132.5 225.5t49 291v727h-152v14h152v55q0 105 32 187t84.5 129.5t113 71.5t124.5 24
q98 0 156.5 -49.5t58.5 -108.5q0 -40 -23 -63t-53 -23t-50.5 22.5t-20.5 61.5q0 59 -32 96t-75 37q-65 0 -114.5 -76.5t-49.5 -222.5v-141h273v-14h-273v-695q0 -178 -52.5 -323.5t-141 -243t-209.5 -164t-253.5 -96t-277.5 -29.5q-177 0 -347.5 45.5t-304 125t-215 197
t-81.5 251.5q0 99 18 185.5t44 150t52 123.5t44 132.5t18 151.5q0 89 -71.5 145t-171.5 56q-73 0 -143.5 -32t-123.5 -97v-764q0 -53 31 -84t84 -31h35v-14h-453v14h37q52 0 83.5 31t31.5 84v766q0 52 -31 78.5t-82 17.5h-4v15l268 41v-134q56 67 140.5 100.5t177.5 33.5
q138 0 238 -67t100 -179zM1712 -12q-121 0 -219.5 46.5t-159 123.5t-93 172t-32.5 198t28 189.5t74.5 146.5t109 102t131 61.5t139.5 19.5q107 0 197.5 -41.5t149 -128.5t58.5 -203q0 -63 -23.5 -119.5t-69 -102.5t-120 -73t-168.5 -27q-119 0 -190 75t-84 185l12 6
q11 -105 79 -178t183 -73q120 0 188 90t68 217q0 159 -96.5 256.5t-224.5 97.5q-59 0 -111.5 -23.5t-95 -69.5t-67.5 -123.5t-25 -176.5q0 -106 32.5 -213.5t88.5 -195t141 -142.5t182 -55q65 0 121 29t90 71.5t54 83.5t24 74l14 -4q-79 -295 -385 -295z" />
    <glyph glyph-name="n_i_f" unicode="nif" horiz-adv-x="2463" 
d="M1010 801q0 -78 -19.5 -154t-48 -139.5t-56.5 -127.5t-47.5 -142.5t-19.5 -159.5q0 -123 44 -222.5t118 -162.5t168 -97t197 -34q94 0 185 27.5t173.5 86t144.5 142t99 203.5t37 262v727h-152v14h152v55q0 105 32 187t84.5 129.5t113 71.5t124.5 24q98 0 155.5 -49.5
t57.5 -108.5q0 -40 -22 -63t-52 -23t-52 22.5t-22 61.5q0 60 -31 96.5t-75 36.5q-64 0 -113 -76t-49 -223v-141h272l-2 -14h-270v-695q0 -136 -28.5 -250.5t-79.5 -198t-119 -147t-151 -102t-170.5 -57.5t-180.5 -19q-110 0 -218 25t-201.5 73t-165.5 112.5t-113 149
t-41 177.5q0 99 20 185.5t49 150t58 123.5t49 132.5t20 151.5q0 89 -71.5 145t-171.5 56q-73 0 -143.5 -32t-123.5 -97v-764q0 -53 31 -84t84 -31h35v-14h-453v14h37q52 0 83.5 31t31.5 84v766q0 52 -31 78.5t-82 17.5h-4v15l268 41v-134q56 67 140.5 100.5t177.5 33.5
q138 0 238 -67t100 -179zM1350 1139q59 30 59 57q0 14 -29.5 48.5t-29.5 62.5q0 32 26 51.5t60 19.5t57 -21t23 -61q0 -26 -9 -48t-30 -41t-34.5 -29t-46 -28.5t-40.5 -23.5zM1507 129q0 -53 31.5 -84t83.5 -31h35v-14h-453v14h37q53 0 84 31t31 84v766q0 52 -31 78.5
t-82 17.5h-4v15l268 41v-918z" />
    <glyph glyph-name="n_i_p" unicode="nip" horiz-adv-x="2877" 
d="M1313 1139q61 31 61 57q0 14 -30.5 48.5t-30.5 62.5q0 32 26.5 51.5t61.5 19.5q34 0 57 -21t23 -61q0 -26 -8.5 -47.5t-31 -41.5t-34.5 -29t-47 -28.5t-41 -23.5zM1010 801q0 -78 -19.5 -154t-48 -139.5t-56.5 -127.5t-47.5 -142.5t-19.5 -159.5q0 -125 41 -226
t110.5 -163.5t156 -95.5t182.5 -33q103 0 199 38t174 109t125.5 185.5t47.5 254.5v748q0 53 -30.5 79t-81.5 17h-4v15l268 41v-277q36 129 117.5 203t210.5 74q110 0 199 -46t144.5 -122.5t85 -171.5t29.5 -197q0 -80 -18 -155t-55.5 -142.5t-90.5 -117.5t-129 -79.5
t-165 -29.5q-117 0 -179.5 66.5t-62.5 162.5q0 115 82 197l12 -11q-78 -81 -78 -184q0 -91 63.5 -154t176.5 -63q98 0 167.5 63.5t100.5 161t31 217.5q0 103 -25 203t-70.5 182t-117.5 132.5t-158 50.5q-69 0 -123 -42.5t-85 -112t-46.5 -149t-15.5 -163.5v-396
q-4 -126 -41.5 -229.5t-97.5 -173t-140.5 -117t-169 -69t-184.5 -21.5q-104 0 -207 24.5t-192.5 72.5t-158 112.5t-108.5 150.5t-40 181q0 99 20 185.5t49 150t58 123.5t49 132.5t20 151.5q0 89 -71.5 145t-171.5 56q-73 0 -143.5 -32t-123.5 -97v-764q0 -53 31 -84t84 -31
h35v-14h-453v14h37q52 0 83.5 31t31.5 84v766q0 52 -31 78.5t-82 17.5h-4v15l268 41v-134q56 67 140.5 100.5t177.5 33.5q138 0 238 -67t100 -179zM1473 129q0 -53 31 -84t83 -31h35v-14h-453v14h37q51 0 83 31.5t32 83.5v766q0 52 -31 78.5t-82 17.5h-4v15l269 41v-918z
" />
    <glyph glyph-name="f_t" unicode="ft" horiz-adv-x="1406" 
d="M862 182v828h-504v-885q0 -50 26 -80.5t69 -30.5h51v-14h-453v14h62q43 0 68.5 30.5t25.5 80.5v885h-152l2 14h150v55q0 107 37.5 189t101 129t139.5 70.5t162 23.5q106 0 202 -32.5t157 -94t61 -135.5q0 -68 -46.5 -124.5t-129.5 -80.5h432v-14h-309v-822
q0 -85 31.5 -129.5t84.5 -44.5q59 0 124 57.5t112 161.5l12 -8q-61 -128 -146 -192t-169 -64q-85 0 -143 59t-58 154zM358 1024h426q111 3 168.5 59.5t57.5 137.5q0 118 -87.5 182.5t-211.5 64.5q-65 0 -127 -19.5t-113 -56t-82 -96t-31 -131.5v-141z" />
    <glyph glyph-name="f_i_t" unicode="fit" horiz-adv-x="1755" 
d="M358 1010v-885q0 -50 26 -80.5t69 -30.5h51v-14h-453v14h62q43 0 68.5 30.5t25.5 80.5v885h-152l2 14h150v55q0 91 33 166t89 125.5t131.5 84.5t158.5 49.5t172 15.5q143 0 270.5 -35.5t209 -103.5t81.5 -152q0 -68 -46.5 -124.5t-129.5 -80.5h497l-2 -14h-309v-822
q0 -84 32.5 -129t84.5 -45q60 0 124.5 57t112.5 162l13 -8q-63 -128 -148 -192t-170 -64t-143 59t-58 154v828h-143v14q111 3 169 59.5t58 137.5q0 85 -63.5 149.5t-162 96.5t-212.5 32q-95 0 -181.5 -24t-158.5 -70.5t-115 -125t-43 -177.5v-78h220v-14h-220zM764 1126
l-6 13q61 30 61 57q0 14 -30.5 48.5t-30.5 62.5q0 32 26.5 51.5t61.5 19.5q34 0 57 -21t23 -61q0 -26 -8.5 -47.5t-31 -41.5t-34.5 -29t-47 -28.5t-41 -23.5zM918 1047v-918q0 -53 31 -84t83 -31h35v-14h-453v14h37q51 0 83 31.5t32 83.5v766q0 52 -31 78.5t-82 17.5h-4v15z
" />
    <glyph glyph-name="f_i_l" unicode="fil" horiz-adv-x="1755" 
d="M358 1010v-885q0 -50 26 -80.5t69 -30.5h51v-14h-453v14h62q43 0 68.5 30.5t25.5 80.5v885h-152l2 14h150v279q0 113 54 206.5t144.5 153t204.5 91.5t238 32q106 0 206 -22.5t190.5 -71t158 -117.5t107.5 -169.5t40 -219.5v-1057q0 -52 32 -83.5t83 -31.5h37v-14h-453v14
h37q51 0 82 31.5t31 83.5v1057q0 146 -48.5 262.5t-129 186.5t-178 106.5t-203.5 36.5q-96 0 -184 -30t-158 -85.5t-112 -142t-42 -191.5q0 -14 2 -22l10 -283h275v-14h-273zM850 1126l-6 13q59 30 59 57q0 14 -29.5 48.5t-29.5 62.5q0 32 26 51.5t60 19.5t58 -21t24 -61
q0 -26 -9 -48t-30.5 -41t-35.5 -29t-46 -28t-41 -24zM1001 1047v-918q0 -53 31.5 -84t83.5 -31h35v-14h-453v14h37q53 0 84 31t31 84v766q0 52 -31 78.5t-82 17.5h-4v15z" />
    <glyph glyph-name="n_g" unicode="ng" horiz-adv-x="2228" 
d="M1669 365q-111 0 -200.5 29t-145 77.5t-84.5 109t-29 126.5q0 65 29 125t84.5 108.5t145 77.5t200.5 29q164 0 287 -68q115 103 115 168q0 45 -50 98q-18 15 -18 37q0 24 25 41.5t55 17.5t49.5 -19.5t19.5 -59.5q0 -73 -40.5 -133.5t-143.5 -155.5q78 -50 119 -121.5
t39 -149.5q0 -117 -91.5 -210.5t-256.5 -118.5q36 -38 100.5 -92.5t115 -99t101 -98.5t79 -115.5t28.5 -125.5q0 -157 -151.5 -269t-408.5 -112q-221 0 -360.5 75t-187.5 192q-114 42 -203 104.5t-146.5 154t-58.5 195.5q0 73 28 164t61 163.5t61 159.5t28 152
q0 89 -71.5 145t-171.5 56q-73 0 -143.5 -32t-123.5 -97v-764q0 -53 31 -84t84 -31h35v-14h-453v14h37q52 0 83.5 31t31.5 84v766q0 52 -31 78.5t-82 17.5h-4v15l268 41v-134q56 67 140.5 100.5t177.5 33.5q138 0 238 -67t100 -179q0 -59 -27 -138t-59 -146t-59 -159.5
t-27 -175.5q0 -128 64.5 -227.5t172.5 -165.5q-12 69 9.5 136.5t71 121.5t134 87.5t189.5 33.5q129 0 212 -77.5t83 -178.5t-90.5 -172.5t-266.5 -71.5q-85 0 -182 19q49 -95 151.5 -153t255.5 -58q105 0 188.5 29.5t133.5 78t76 106t26 117.5q0 67 -21 131.5t-60 124
t-76 105.5t-88 105.5t-78 95.5q-46 -4 -74 -4zM1608 1018q-137 0 -205 -65.5t-68 -168.5q0 -90 48 -178.5t140 -150t203 -62.5q-65 92 -65 170q0 81 76 166l104 117l12 -6l-92 -103q-80 -88 -80 -174q0 -84 76 -170q122 7 183 71.5t61 160.5q0 91 -49 180.5t-141.5 151
t-202.5 61.5zM1219 -276q112 -37 225 -37q154 0 232.5 64t78.5 157q0 96 -77 171t-199 75q-131 0 -207 -88.5t-76 -212.5q0 -67 23 -129z" />
    <glyph glyph-name="h_t" unicode="ht" horiz-adv-x="1959" 
d="M356 129q0 -52 31 -83.5t82 -31.5h37v-14h-453v14h37q51 0 83 31.5t32 83.5v1057q0 127 43.5 232t117 176.5t172 121t207 72t224.5 22.5q135 0 261 -31t225 -87t158.5 -142t59.5 -188q0 -143 -102 -242q-54 -70 -156 -96h461v-14h-309v-822q0 -85 31.5 -129.5t84.5 -44.5
q59 0 124 57.5t112 161.5l12 -8q-61 -128 -146 -192t-169 -64q-85 0 -143 59t-58 154v828h-143v14q146 3 230.5 98t84.5 228q0 99 -51.5 183.5t-136.5 140t-193 87t-223 31.5q-96 0 -185 -21.5t-170 -69t-141 -117t-95.5 -172t-35.5 -226.5v-273q55 66 139 100t177 34
q138 0 238 -67t100 -179q0 -60 -27 -147t-59 -161.5t-59 -162t-27 -148.5q0 -82 32 -125t84 -43q60 0 125 57.5t113 161.5l12 -8q-61 -128 -146 -192t-169 -64q-86 0 -144 59t-59 154q1 50 29 136.5t61 166.5t60.5 175t27.5 161q0 89 -71.5 145t-171.5 56q-73 0 -143 -32
t-122 -97v-764z" />
    <glyph glyph-name="d_i_t" unicode="dit" horiz-adv-x="2498" 
d="M1022 1186v-1057q0 -52 31 -83.5t82 -31.5h36v-14h-301v584q-4 80 -22 153t-50 135.5t-83.5 100t-116.5 37.5q-86 0 -157.5 -50.5t-116.5 -132.5t-70 -182t-25 -203q0 -89 18.5 -167t53.5 -140.5t93 -98.5t132 -36q113 0 177.5 63t64.5 154q0 100 -78 184l10 11
q84 -81 84 -197q0 -96 -62.5 -162.5t-180.5 -66.5q-89 0 -165 29.5t-129.5 79.5t-91 117t-55.5 142.5t-18 155.5q0 102 30 197t85.5 171.5t144.5 122.5t199 46q248 0 329 -275v414q0 125 38.5 229t103.5 175.5t152.5 121t184 72t199.5 22.5q166 0 297.5 -39t209.5 -103.5
t118.5 -141.5t40.5 -160q0 -118 -76.5 -211.5t-212.5 -126.5h492l-2 -18h-310v-818q0 -85 32 -129.5t85 -44.5q59 0 124 57.5t112 161.5l12 -8q-61 -128 -146.5 -192t-169.5 -64q-85 0 -142.5 59t-57.5 154v824h-144v18q146 3 231 98t85 228q0 64 -20.5 125.5t-65.5 119
t-109 100.5t-158 69t-206 26q-84 0 -162 -22t-148 -69.5t-122 -117t-82.5 -171t-30.5 -224.5zM1425 1126l-6 13q60 31 60 57q0 14 -30 48.5t-30 62.5q0 32 26 51.5t62 19.5q32 0 56 -21t24 -61q0 -26 -9 -48t-30.5 -41t-35.5 -29t-46 -28t-41 -24zM1577 1047v-918
q0 -53 31.5 -84t83.5 -31h34v-14h-452v14h37q52 0 83 31t31 84v766q0 53 -30.5 79t-81.5 17h-4v15z" />
    <glyph glyph-name="n_a_p" unicode="nap" horiz-adv-x="3371" 
d="M1010 801q0 -78 -19.5 -154t-48 -139.5t-56.5 -127.5t-47.5 -142.5t-19.5 -159.5q0 -116 40 -214.5t109.5 -168t162.5 -118t198 -72t217 -23.5q120 0 235.5 26.5t218.5 81.5t181 132.5t124 187t46 237.5v748q0 52 -31 78.5t-82 17.5h-4v15l269 41v-277
q36 128 116.5 202.5t210.5 74.5q110 0 199 -46t144.5 -122.5t85.5 -171.5t30 -197q0 -80 -18 -155.5t-55.5 -142.5t-91 -117t-129.5 -79.5t-165 -29.5q-118 0 -180.5 66.5t-62.5 162.5q0 116 84 197l10 -11q-76 -82 -76 -184q0 -91 63.5 -154t176.5 -63q74 0 132 36t93 98.5
t53.5 140.5t18.5 167q0 103 -25 203t-70 182t-116.5 132.5t-157.5 50.5q-69 0 -123 -42.5t-85 -112t-46.5 -149t-15.5 -163.5v-396q-5 -141 -56.5 -257.5t-134.5 -195.5t-194 -133.5t-234 -79t-256 -24.5q-178 0 -349.5 44.5t-307.5 123t-219.5 197.5t-83.5 256
q0 99 20 185.5t49 150t58 123.5t49 132.5t20 151.5q0 89 -71.5 145t-171.5 56q-73 0 -143.5 -32t-123.5 -97v-764q0 -53 31 -84t84 -31h35v-14h-453v14h37q52 0 83.5 31t31.5 84v766q0 52 -31 78.5t-82 17.5h-4v15l268 41v-134q56 67 140.5 100.5t177.5 33.5q138 0 238 -67
t100 -179zM1929 461h2q40 0 64 -28.5t24 -74.5v-118q0 -211 62 -211q38 0 98 86l12 -6q-37 -61 -82 -91t-90 -30q-64 0 -107.5 55.5t-43.5 146.5v160v5v4.5v4.5v5t-0.5 4t-1.5 3t-2 2.5t-2.5 2t-3.5 0.5q-10 0 -20.5 -22.5t-24.5 -59t-33 -80.5t-51.5 -88t-74.5 -80.5
t-107.5 -59t-145.5 -22.5q-102 0 -168 61t-66 175q0 68 40 118t104 79.5t141.5 54t155.5 50t142 57.5t104 87.5t40 130.5q0 82 -46 139t-113 81t-146 24q-47 0 -85.5 -9.5t-73.5 -33t-50 -70.5t-4 -114q0 -44 -13.5 -70.5t-53.5 -26.5q-34 0 -60 26.5t-26 74.5q0 74 62 129
t154 81.5t197 26.5q98 0 179.5 -23.5t135.5 -77.5t54 -130q0 -67 -38 -120t-98.5 -88t-133.5 -66t-146 -61.5t-133.5 -65t-98.5 -87t-38 -118.5q0 -75 47 -116.5t121 -41.5q56 0 99 12.5t86.5 45t80 97.5t64.5 162q13 46 43.5 72.5t68.5 26.5z" />
    <glyph glyph-name="h_g" unicode="hg" horiz-adv-x="2342" 
d="M1479 168q129 0 212 -77.5t83 -178.5t-90.5 -172.5t-266.5 -71.5q-85 0 -182 19q49 -95 151.5 -153t255.5 -58q105 0 188.5 29.5t133.5 78t76 106t26 117.5q0 67 -21 131.5t-60 124t-76 105.5t-88 105.5t-78 95.5q-46 -4 -74 -4q-111 0 -200.5 29t-145 77.5t-84.5 109
t-29 126.5q0 65 29 125t84.5 108.5t145 77.5t200.5 29q168 0 287 -68q60 54 88.5 93.5t28.5 74.5q0 43 -52 98q-18 15 -18 37q0 24 25 41.5t55 17.5t49.5 -19.5t19.5 -59.5q0 -73 -40.5 -133.5t-143.5 -155.5q76 -49 117 -119t41 -147q0 -119 -91 -214t-257 -120
q36 -38 100.5 -92.5t115 -99t101 -98.5t79 -115.5t28.5 -125.5q0 -157 -151.5 -269t-408.5 -112q-221 0 -360.5 75t-187.5 192q-114 42 -203 104.5t-146.5 154t-58.5 195.5q0 73 28 164t61 163.5t61 159.5t28 152q0 89 -71.5 145t-171.5 56q-73 0 -143 -32t-122 -97v-764
q0 -52 31 -83.5t82 -31.5h37v-14h-453v14h37q51 0 83 31.5t32 83.5v1257q0 51 -31 77.5t-82 17.5h-4v14l268 41v-623q55 66 139 100t177 34q138 0 238 -67t100 -179q0 -59 -27 -138t-59 -146t-59 -159.5t-27 -175.5q0 -128 64.5 -227.5t172.5 -165.5q-12 69 9.5 136.5
t71 121.5t134 87.5t189.5 33.5zM1608 1018q-137 0 -205 -65.5t-68 -168.5q0 -90 48 -178.5t140 -150t203 -62.5q-65 92 -65 170q0 81 76 166l104 117l12 -6l-92 -103q-80 -88 -80 -174q0 -84 76 -170q122 7 183 71.5t61 160.5q0 91 -49 180.5t-141.5 151t-202.5 61.5z
M1219 -276q112 -37 225 -37q154 0 232.5 64t78.5 157q0 96 -77 171t-199 75q-131 0 -207 -88.5t-76 -212.5q0 -67 23 -129z" />
    <glyph glyph-name="a_s" unicode="as" horiz-adv-x="1955" 
d="M1874 285q0 -90 -89 -165t-226 -116t-283 -41q-101 0 -189 22t-160.5 66.5t-114.5 121t-42 177.5q0 3 0.5 8.5t0 8.5t-1 7t-3 5.5t-6.5 1.5q-11 0 -25 -30.5t-29 -76.5t-47 -99t-74 -99t-115 -76.5t-165 -30.5q-103 0 -168 61t-65 175q0 68 40 118t104 79.5t141.5 54
t155.5 50t142 57.5t104 87.5t40 130.5q0 82 -47 138.5t-113.5 80t-144.5 23.5q-30 0 -56.5 -3.5t-55.5 -13t-49 -25.5t-37 -41t-19.5 -60t2.5 -82q2 -8 2 -21q0 -36 -20 -56t-50 -20q-34 0 -59 26.5t-25 74.5q0 74 61.5 129t153.5 81.5t197 26.5q98 0 179 -23.5t135 -77.5
t54 -130q0 -67 -37.5 -120t-98 -88t-133.5 -66t-146 -61.5t-133.5 -65t-98 -87t-37.5 -118.5q0 -75 47 -116.5t121 -41.5q55 0 97.5 12.5t86.5 45t80.5 97.5t65.5 162q12 45 43 72t70 27h2q38 0 62 -28.5t24 -74.5q0 -94 39 -166t105 -114t144.5 -63t165.5 -21
q104 0 197.5 28t153 81.5t59.5 119.5q0 51 -39 90t-101 65t-136.5 49t-149.5 50t-137 61.5t-101 90t-39 127.5q0 95 54 161t134 94.5t177 28.5t184 -29.5t144 -89t57 -137.5q0 -43 -29.5 -67.5t-68.5 -24.5q-38 0 -59 24.5t-5 67.5q17 47 17 88q0 55 -34.5 90.5t-86.5 49.5
t-121 14q-74 0 -135 -20t-102.5 -68t-41.5 -117q0 -55 39 -96.5t101.5 -68.5t137.5 -50.5t150.5 -50.5t138 -60t101.5 -86.5t39 -123.5z" />
    <glyph glyph-name="b_t" unicode="bt" horiz-adv-x="1943" 
d="M88 14q52 0 83.5 31t31.5 84v1057q0 127 43.5 232t117 176.5t172.5 121t208 72t225 22.5q134 0 260 -31t225 -87t159 -142t60 -188q0 -118 -76.5 -211.5t-212.5 -126.5h476v-14h-310v-822q0 -85 32 -129.5t85 -44.5q59 0 124 57.5t112 161.5l12 -8q-61 -128 -146.5 -192
t-169.5 -64q-85 0 -142.5 59t-57.5 154v828h-144v14h15q147 3 232 98t85 228q0 79 -33.5 150t-92 123.5t-135 91t-165.5 58t-180 19.5q-96 0 -185 -21.5t-170 -69t-141 -117t-95.5 -172t-35.5 -226.5v-416q36 128 117 202.5t211 74.5q110 0 199 -46t144.5 -122.5
t85.5 -171.5t30 -197q0 -80 -18 -155.5t-55.5 -142.5t-91 -117t-129.5 -79.5t-165 -29.5q-117 0 -180.5 66.5t-63.5 162.5q0 116 84 197l10 -11q-75 -81 -75 -184q0 -92 63 -154.5t176 -62.5q74 0 132 36t93 98.5t53.5 140.5t18.5 167q0 103 -24.5 203t-69.5 182
t-116.5 132.5t-157.5 50.5q-69 0 -123 -42.5t-85.5 -112t-47 -149t-15.5 -163.5v-543h-303v14h37z" />
    <glyph glyph-name="d_i_l" unicode="dil" horiz-adv-x="2334" 
d="M2134 1186v-1057q0 -52 31 -83.5t82 -31.5h37v-14h-453v14h37q51 0 82.5 31.5t31.5 83.5v1100q-7 131 -50 237t-110.5 172t-150 101t-170.5 35q-92 0 -176.5 -38t-152.5 -109t-109 -185.5t-41 -255.5v-1057q0 -52 31 -83.5t82 -31.5h36v-14h-301v584q-4 80 -22 153
t-50 135.5t-83.5 100t-116.5 37.5q-86 0 -157.5 -50.5t-116.5 -132.5t-70 -182t-25 -203q0 -89 18.5 -167t53.5 -140.5t93 -98.5t132 -36q113 0 177.5 63t64.5 154q0 100 -78 184l10 11q84 -81 84 -197q0 -96 -62.5 -162.5t-180.5 -66.5q-89 0 -165 29.5t-129.5 79.5
t-91 117t-55.5 142.5t-18 155.5q0 102 30 197t85.5 171.5t144.5 122.5t199 46q248 0 329 -275v414q0 117 35.5 216.5t96 169.5t141.5 119.5t171.5 73t186.5 23.5t187.5 -23.5t172.5 -73t141.5 -119.5t96 -169.5t35.5 -216.5zM1425 1126l-6 13q60 31 60 57q0 14 -30 48.5
t-30 62.5q0 32 26 51.5t62 19.5q32 0 56 -21t24 -61q0 -26 -9 -48t-30.5 -41t-35.5 -29t-46 -28t-41 -24zM1577 1047v-918q0 -53 31.5 -84t83.5 -31h34v-14h-452v14h37q52 0 83 31t31 84v766q0 53 -30.5 79t-81.5 17h-4v15z" />
    <glyph glyph-name="d_g" unicode="dg" horiz-adv-x="2347" 
d="M1022 1186v-1057q0 -52 31 -83.5t82 -31.5h36v-14h-301v584q-4 80 -22 153t-50 135.5t-83.5 100t-116.5 37.5q-86 0 -157.5 -50.5t-116.5 -132.5t-70 -182t-25 -203q0 -89 18.5 -167t53.5 -140.5t93 -98.5t132 -36q113 0 177.5 63t64.5 154q0 100 -78 184l10 11
q84 -81 84 -197q0 -96 -62.5 -162.5t-180.5 -66.5q-89 0 -165 29.5t-129.5 79.5t-91 117t-55.5 142.5t-18 155.5q0 102 30 197t85.5 171.5t144.5 122.5t199 46q248 0 329 -275v414q0 127 44.5 232t119.5 176.5t176 121t212 72t229 22.5q169 0 302 -37t214 -99.5
t122.5 -140.5t41.5 -165q0 -110 -63 -215t-179 -182q76 -48 116 -118t40 -146q0 -120 -91 -214.5t-258 -119.5q36 -38 100.5 -92.5t115.5 -99t102 -98.5t79.5 -115.5t28.5 -125.5q0 -75 -37.5 -143.5t-107 -121.5t-177.5 -84.5t-239 -31.5q-142 0 -254.5 33t-180 88
t-102 121t-34.5 137q0 64 27.5 122.5t77.5 104.5t128.5 73.5t173.5 27.5q134 0 230 -70.5t153 -187.5l-14 -6q-55 113 -147.5 181.5t-221.5 68.5q-130 0 -206 -88.5t-76 -212.5q0 -70 27 -135.5t79.5 -120.5t140.5 -88t199 -33q105 0 188.5 29.5t133.5 78t76 106t26 117.5
q0 67 -21 131.5t-60 124t-76 105.5t-88 105.5t-78 95.5q-46 -4 -74 -4q-111 0 -200.5 29t-145 77.5t-84.5 109t-29 126.5q0 65 29 125t84.5 108.5t145 77.5t200.5 29q168 0 287 -68q66 60 104.5 153t38.5 193q0 71 -19 136.5t-63 126.5t-108.5 106t-161.5 71.5t-217 26.5
q-96 0 -185 -21.5t-170 -69t-141 -117t-95.5 -172t-35.5 -226.5zM1855 729l105 117l12 -6l-90 -103q-82 -88 -82 -174q0 -84 76 -170q122 7 183 71.5t61 160.5q0 67 -29.5 136.5t-79.5 126.5t-125.5 93.5t-159.5 36.5q-137 0 -204.5 -65.5t-67.5 -168.5q0 -90 48.5 -178.5
t140.5 -150t202 -62.5q-65 92 -65 170q0 83 75 166z" />
    <glyph glyph-name="d_i_k" unicode="dik" horiz-adv-x="2971" 
d="M2134 1186v-731l307 389q43 55 43 94q0 34 -32 53t-91 19h-14v14h459v-14h-6q-95 0 -188.5 -45.5t-153.5 -120.5l-193 -246q114 92 246 92q110 0 184 -66.5t74 -179.5q0 -46 -21 -94.5t-45.5 -82t-45.5 -73t-21 -71.5q0 -111 80 -111q64 0 142 64.5t120 156.5l12 -8
q-62 -129 -152 -192.5t-180 -63.5q-76 0 -127 41t-51 103q0 40 21 87t45.5 84t45.5 86t21 93q0 93 -43.5 148t-115.5 55q-115 0 -248 -142l-72 -92v-303q0 -52 31 -83.5t82 -31.5h37v-14h-453v14h37q51 0 82.5 31.5t31.5 83.5v1100q-7 131 -50 237t-110.5 172t-150 101
t-170.5 35q-92 0 -176.5 -38t-152.5 -109t-109 -185.5t-41 -255.5v-1057q0 -52 31 -83.5t82 -31.5h36v-14h-301v584q-4 80 -22 153t-50 135.5t-83.5 100t-116.5 37.5q-86 0 -157.5 -50.5t-116.5 -132.5t-70 -182t-25 -203q0 -89 18.5 -167t53.5 -140.5t93 -98.5t132 -36
q113 0 177.5 63t64.5 154q0 100 -78 184l10 11q84 -81 84 -197q0 -96 -62.5 -162.5t-180.5 -66.5q-89 0 -165 29.5t-129.5 79.5t-91 117t-55.5 142.5t-18 155.5q0 102 30 197t85.5 171.5t144.5 122.5t199 46q248 0 329 -275v414q0 117 35.5 216.5t96 169.5t141.5 119.5
t171.5 73t186.5 23.5t187.5 -23.5t172.5 -73t141.5 -119.5t96 -169.5t35.5 -216.5zM1425 1126l-6 13q60 31 60 57q0 14 -30 48.5t-30 62.5q0 32 26 51.5t62 19.5q32 0 56 -21t24 -61q0 -26 -9 -48t-30.5 -41t-35.5 -29t-46 -28t-41 -24zM1577 1047v-918q0 -53 31.5 -84
t83.5 -31h34v-14h-452v14h37q52 0 83 31t31 84v766q0 53 -30.5 79t-81.5 17h-4v15z" />
    <glyph glyph-name="h_a_f" unicode="haf" horiz-adv-x="2930" 
d="M1010 801q0 -78 -17.5 -154t-42.5 -139.5t-50 -127.5t-42.5 -142.5t-17.5 -159.5q0 -114 40 -211t110 -166.5t163.5 -119t201 -73.5t222.5 -24q130 0 254 30.5t237 95t197.5 157t135 225.5t50.5 291v727h-151l2 14h149v55q0 105 32 187t85 129.5t113.5 71.5t124.5 24
q98 0 156.5 -49.5t58.5 -108.5q0 -40 -23 -63t-53 -23t-51 22.5t-21 61.5q0 60 -31 96.5t-75 36.5q-65 0 -114.5 -76.5t-49.5 -222.5v-141h272v-14h-272v-695q0 -178 -53.5 -323.5t-143.5 -243t-213 -164t-258 -96t-282 -29.5q-180 0 -353.5 45.5t-309.5 125t-219 197
t-83 251.5q0 99 18 185.5t44 150t52 123.5t44 132.5t18 151.5q0 89 -71.5 145t-171.5 56q-73 0 -143 -32t-122 -97v-764q0 -52 31 -83.5t82 -31.5h37v-14h-453v14h37q51 0 83 31.5t32 83.5v1257q0 51 -31 77.5t-82 17.5h-4v14l268 41v-623q55 66 139 100t177 34
q138 0 238 -67t100 -179zM1958 455h2q39 0 63.5 -29.5t24.5 -75.5v-119q0 -208 61 -208q41 0 99 83l12 -6q-75 -120 -172 -120q-64 0 -108 55.5t-44 146.5v160q0 33 -10 33t-20.5 -22.5t-24 -59t-32.5 -80.5t-51.5 -88t-74.5 -80.5t-107.5 -59t-145.5 -22.5
q-102 0 -168 60.5t-66 173.5q0 68 40 118t104 79.5t141.5 54t155.5 50t142 57.5t104 87.5t40 130.5q0 82 -46 139t-113 81t-146 24q-47 0 -85.5 -9.5t-73.5 -33t-50 -70.5t-4 -114q0 -3 1 -10.5t1 -10.5q0 -35 -21 -55.5t-49 -20.5q-34 0 -60 27t-26 74q0 74 62 129
t154.5 81.5t197.5 26.5q98 0 179.5 -23.5t135.5 -77.5t54 -130q0 -67 -38 -120t-98.5 -88t-133.5 -66t-146 -61.5t-133.5 -65t-98.5 -87t-38 -118.5q0 -74 47.5 -116t120.5 -42q56 0 98.5 12.5t86.5 45.5t80 98t64 163q14 45 44.5 72t68.5 27z" />
    <glyph glyph-name="h_i_f" unicode="hif" horiz-adv-x="2441" 
d="M1010 801q0 -78 -17.5 -154t-42.5 -139.5t-50 -127.5t-42.5 -142.5t-17.5 -159.5q0 -123 42.5 -222.5t113.5 -162.5t161.5 -97t190.5 -34q91 0 178 27.5t166.5 86t139 142t95 203.5t35.5 262v727h-152v14h152v55q0 105 32 187t84.5 129.5t113 71.5t124.5 24
q98 0 156.5 -49.5t58.5 -108.5q0 -40 -22.5 -63t-52.5 -23t-51 22.5t-21 61.5q0 59 -32 96t-77 37q-63 0 -112 -76.5t-49 -222.5v-141h272v-14h-272v-695q0 -162 -40 -294.5t-107 -221t-158.5 -149t-192 -87t-209.5 -26.5q-180 0 -344 68t-269.5 194t-105.5 279
q0 99 18 185.5t44 150t52 123.5t44 132.5t18 151.5q0 89 -71.5 145t-171.5 56q-73 0 -143 -32t-122 -97v-764q0 -52 31 -83.5t82 -31.5h37v-14h-453v14h37q51 0 83 31.5t32 83.5v1257q0 51 -31 77.5t-82 17.5h-4v14l268 41v-623q55 66 139 100t177 34q138 0 238 -67
t100 -179zM1350 1139q61 31 61 57q0 14 -30.5 48.5t-30.5 62.5q0 32 26.5 51.5t61.5 19.5q34 0 57 -21t23 -61q0 -26 -8.5 -47.5t-31 -41.5t-34.5 -29t-47 -28.5t-41 -23.5zM1509 129q0 -53 31.5 -84t83.5 -31h35v-14h-453v14h37q51 0 83 31.5t32 83.5v766q0 52 -31 78.5
t-82 17.5h-4v15l268 41v-918z" />
    <glyph glyph-name="h_u_f" unicode="huf" horiz-adv-x="3008" 
d="M1010 801q0 -78 -17.5 -154t-42.5 -139.5t-50 -127.5t-42.5 -142.5t-17.5 -159.5q0 -141 64.5 -256t173 -187.5t246 -111.5t288.5 -39q136 0 266.5 30.5t249 95t207.5 157t141.5 225.5t52.5 291v727h-151l2 14h149v55q0 105 32 187t85 129.5t113.5 71.5t124.5 24
q98 0 156.5 -49.5t58.5 -108.5q0 -40 -23 -63t-53 -23t-51 22.5t-21 61.5q0 59 -31.5 96t-74.5 37q-65 0 -114.5 -76.5t-49.5 -222.5v-141h272v-14h-272v-695q0 -178 -55.5 -323.5t-149.5 -243t-222 -164t-268.5 -96t-293.5 -29.5q-187 0 -367.5 45.5t-322 125t-228 197
t-86.5 251.5q0 99 18 185.5t44 150t52 123.5t44 132.5t18 151.5q0 89 -71.5 145t-171.5 56q-73 0 -143 -32t-122 -97v-764q0 -52 31 -83.5t82 -31.5h37v-14h-453v14h37q51 0 83 31.5t32 83.5v1257q0 51 -31 77.5t-82 17.5h-4v14l268 41v-623q55 66 139 100t177 34
q138 0 238 -67t100 -179zM1970 195l2 2v702q0 52 -31.5 83.5t-82.5 31.5h-3v14h269v-784q0 -209 61 -209q39 0 94 84l9 -6q-34 -59 -78.5 -89t-89.5 -30q-59 0 -102.5 49.5t-47.5 132.5q-47 -101 -147 -154t-215 -53q-137 0 -237.5 67.5t-100.5 178.5q0 60 26.5 147
t58.5 162t58.5 163t26.5 149q0 82 -31.5 125t-83.5 43q-61 0 -127 -60l-10 10q97 93 203 93q85 0 142.5 -58.5t57.5 -152.5q0 -63 -44 -183t-88 -247t-44 -209q0 -91 71 -146t173 -55q91 0 175.5 50t135.5 149z" />
    <glyph glyph-name="h_e_f" unicode="hef" horiz-adv-x="2930" 
d="M1010 801q0 -78 -17.5 -154t-42.5 -139.5t-50 -127.5t-42.5 -142.5t-17.5 -159.5q0 -114 40 -211t110 -166.5t163.5 -119t201 -73.5t222.5 -24q130 0 254 30.5t237 95t197.5 157t135 225.5t50.5 291v727h-151l2 14h149v55q0 105 32 187t85 129.5t113.5 71.5t124.5 24
q98 0 156.5 -49.5t58.5 -108.5q0 -40 -23 -63t-53 -23t-51 22.5t-21 61.5q0 60 -31 96.5t-75 36.5q-65 0 -114.5 -76.5t-49.5 -222.5v-141h272v-14h-272v-695q0 -178 -53.5 -323.5t-143.5 -243t-213 -164t-258 -96t-282 -29.5q-180 0 -353.5 45.5t-309.5 125t-219 197
t-83 251.5q0 99 18 185.5t44 150t52 123.5t44 132.5t18 151.5q0 89 -71.5 145t-171.5 56q-73 0 -143 -32t-122 -97v-764q0 -52 31 -83.5t82 -31.5h37v-14h-453v14h37q51 0 83 31.5t32 83.5v1257q0 51 -31 77.5t-82 17.5h-4v14l268 41v-623q55 66 139 100t177 34
q138 0 238 -67t100 -179zM1741 -33q-121 0 -219.5 47t-159 124.5t-93 173t-32.5 198.5q0 128 42 229.5t111.5 163t153.5 93.5t174 32q79 0 152 -24.5t130.5 -70.5t91.5 -118t34 -160q0 -63 -23.5 -119.5t-69 -102t-120.5 -72.5t-170 -27q-118 0 -189 75t-84 183l13 6
q11 -105 79 -177.5t183 -72.5q120 0 188 90t68 217q0 80 -28 148t-74 112.5t-104 69.5t-118 25q-59 0 -111.5 -23.5t-95 -70t-67.5 -124t-25 -176.5q0 -106 32.5 -213.5t89 -195t141.5 -142.5t182 -55q65 0 121 29t89.5 71.5t53.5 83.5t24 74l15 -4q-80 -297 -385 -297z" />
    <glyph glyph-name="h_o_f" unicode="hof" horiz-adv-x="2961" 
d="M1010 801q0 -78 -17.5 -154t-42.5 -139.5t-50 -127.5t-42.5 -142.5t-17.5 -159.5q0 -114 41 -211t112 -166.5t166.5 -119t205 -73.5t226.5 -24q132 0 258.5 30.5t241.5 95t201.5 157t138 225.5t51.5 291v727h-151v14h151v55q0 105 32 187t84.5 129.5t113 71.5t124.5 24
q98 0 155.5 -49.5t57.5 -108.5q0 -41 -21.5 -63.5t-51.5 -22.5t-52 22.5t-22 61.5q0 60 -31 96.5t-75 36.5q-64 0 -113 -76t-49 -223v-141h272l-2 -14h-270v-695q0 -178 -54.5 -323.5t-146 -243t-216.5 -164t-262 -96t-286 -29.5q-183 0 -359.5 45.5t-314.5 125t-222.5 197
t-84.5 251.5q0 99 18 185.5t44 150t52 123.5t44 132.5t18 151.5q0 89 -71.5 145t-171.5 56q-73 0 -143 -32t-122 -97v-764q0 -52 31 -83.5t82 -31.5h37v-14h-453v14h37q51 0 83 31.5t32 83.5v1257q0 51 -31 77.5t-82 17.5h-4v14l268 41v-623q55 66 139 100t177 34
q138 0 238 -67t100 -179zM1724 -31q-98 0 -181 30.5t-141.5 82t-100 121t-61 146.5t-19.5 159t19.5 159.5t61 146.5t100 121t141.5 82t181 30q122 0 220 -46t159 -122.5t93 -172t32 -198.5q0 -81 -20 -158.5t-61 -147t-100 -121t-142 -82t-181 -30.5zM1655 1018
q-80 0 -141 -30t-97.5 -83t-55 -120.5t-18.5 -147.5q0 -109 33.5 -222t91.5 -206t144 -152t182 -59q105 0 177 53t103 136t31 190q0 110 -33.5 223t-91 206.5t-143.5 152.5t-182 59z" />
    <glyph glyph-name="h_a_p" unicode="hap" horiz-adv-x="3418" 
d="M1010 801q0 -78 -19.5 -154t-48 -139.5t-56.5 -127.5t-47.5 -142.5t-19.5 -159.5q0 -116 41.5 -214.5t113 -168t167 -118t204 -72t224.5 -23.5q124 0 242.5 26.5t224.5 81.5t186 132.5t127 187t47 237.5v748q0 53 -30.5 79t-81.5 17h-5v15l269 41v-277q77 277 327 277
q110 0 199 -46t144.5 -122.5t85.5 -171.5t30 -197q0 -80 -18 -155.5t-55.5 -142.5t-91 -117t-129.5 -79.5t-165 -29.5q-117 0 -180 66.5t-63 162.5q0 116 84 197l10 -11q-76 -82 -76 -184q0 -91 63.5 -154t176.5 -63q98 0 167 63.5t99.5 161t30.5 217.5q0 103 -25 203
t-70 182t-116.5 132.5t-157.5 50.5q-69 0 -123 -42.5t-85 -112t-46.5 -149t-15.5 -163.5v-396q-5 -141 -57.5 -257.5t-137.5 -195.5t-198.5 -133.5t-239.5 -79t-262 -24.5q-121 0 -241.5 20t-229.5 56.5t-203 92t-163 123t-108.5 152.5t-39.5 177q0 99 20 185.5t49 150
t58 123.5t49 132.5t20 151.5q0 89 -71.5 145t-171.5 56q-73 0 -143.5 -32t-123.5 -97v-764q0 -53 31 -84t84 -31h35v-14h-453v14h37q52 0 83.5 31t31.5 84v1257q0 51 -31 77.5t-82 17.5h-4v14l268 41v-623q56 67 140.5 100.5t177.5 33.5q138 0 238 -67t100 -179zM1966 461h2
q40 0 64 -28.5t24 -74.5v-118q0 -211 62 -211q35 0 98 86l12 -6q-37 -61 -82 -91t-90 -30q-64 0 -107.5 55.5t-43.5 146.5v160q0 31 -11 31q-10 0 -20.5 -22.5t-24 -59t-32.5 -80.5t-51.5 -88t-74.5 -80.5t-107.5 -59t-145.5 -22.5q-102 0 -168 61t-66 175q0 68 40 118
t104 79.5t141.5 54t155.5 50t142 57.5t104 87.5t40 130.5q0 82 -46 139t-113 81t-146 24q-47 0 -85.5 -9.5t-73.5 -33t-50 -70.5t-4 -114q0 -44 -13.5 -70.5t-53.5 -26.5q-34 0 -60 26.5t-26 74.5q0 74 62 129t154 81.5t197 26.5q97 0 178.5 -23.5t136 -77.5t54.5 -130
q0 -67 -38 -120t-98.5 -88t-133.5 -66t-146 -61.5t-133.5 -65t-98.5 -87t-38 -118.5q0 -75 47 -116.5t121 -41.5q55 0 97.5 12.5t86.5 45t80.5 97.5t64.5 162q13 46 44 72.5t69 26.5z" />
    <glyph glyph-name="h_i_p" unicode="hip" horiz-adv-x="2877" 
d="M1010 801q0 -78 -19.5 -154t-48 -139.5t-56.5 -127.5t-47.5 -142.5t-19.5 -159.5q0 -125 41 -226t110.5 -163.5t156 -95.5t182.5 -33q103 0 199 38t174 109t125.5 185.5t47.5 254.5v748q0 53 -30.5 79t-81.5 17h-4v15l268 41v-277q36 129 117.5 203t210.5 74
q110 0 199 -46t144.5 -122.5t85 -171.5t29.5 -197q0 -80 -18 -155t-55.5 -142.5t-90.5 -117.5t-129 -79.5t-165 -29.5q-117 0 -179.5 66.5t-62.5 162.5q0 115 82 197l12 -11q-78 -81 -78 -184q0 -91 63.5 -154t176.5 -63q98 0 167.5 63.5t100.5 161t31 217.5q0 103 -25 203
t-70.5 182t-117.5 132.5t-158 50.5q-69 0 -123 -42.5t-85 -112t-46.5 -149t-15.5 -163.5v-396q-4 -126 -41.5 -229.5t-97.5 -173t-140.5 -117t-169 -69t-184.5 -21.5q-104 0 -207 24.5t-192.5 72.5t-158 112.5t-108.5 150.5t-40 181q0 99 20 185.5t49 150t58 123.5t49 132.5
t20 151.5q0 89 -71.5 145t-171.5 56q-73 0 -143 -32t-122 -97v-764q0 -52 31 -83.5t82 -31.5h37v-14h-453v14h37q51 0 83 31.5t32 83.5v1257q0 51 -31 77.5t-82 17.5h-4v14l268 41v-623q55 66 139 100t177 34q138 0 238 -67t100 -179zM1341 1139q62 32 62 57q0 14 -31 48.5
t-31 62.5q0 32 27 51.5t62 19.5q33 0 56 -21t23 -61q0 -22 -8 -42t-18 -33.5t-30 -29t-32.5 -23t-38 -22t-34.5 -20.5zM1501 129q0 -52 31 -83.5t82 -31.5h37v-14h-453v14h37q51 0 83 31.5t32 83.5v766q0 52 -32 78.5t-83 17.5h-2v15l268 41v-918z" />
    <glyph glyph-name="h_u_p" unicode="hup" horiz-adv-x="3512" 
d="M1010 801q0 -78 -19.5 -154t-48 -139.5t-56.5 -127.5t-47.5 -142.5t-19.5 -159.5q0 -116 44 -214.5t120 -168t177.5 -118t216 -72t237.5 -23.5q131 0 256.5 26.5t238 81.5t197 132.5t134.5 187t50 237.5v748q0 53 -30.5 79t-81.5 17h-4v15l268 41v-277q36 129 117 203
t211 74q110 0 199 -46t144.5 -122.5t85 -171.5t29.5 -197q0 -80 -18 -155t-55.5 -142.5t-90.5 -117.5t-129 -79.5t-165 -29.5q-117 0 -179.5 66.5t-62.5 162.5q0 118 82 197l10 -11q-76 -82 -76 -184q0 -91 63.5 -154t176.5 -63q98 0 167 63.5t99.5 161t30.5 217.5
q0 103 -25 203t-70 182t-116.5 132.5t-157.5 50.5q-69 0 -123 -42.5t-85 -112t-46.5 -149t-15.5 -163.5v-396q-5 -141 -60 -257.5t-144 -195.5t-208.5 -133.5t-252 -79t-275.5 -24.5q-153 0 -303 27.5t-281.5 82t-232 128.5t-159 173.5t-58.5 209.5q0 99 20 185.5t49 150
t58 123.5t49 132.5t20 151.5q0 89 -71.5 145t-171.5 56q-73 0 -143 -32t-122 -97v-764q0 -52 31 -83.5t82 -31.5h37v-14h-453v14h37q51 0 83 31.5t32 83.5v1257q0 51 -31 77.5t-82 17.5h-4v14l268 41v-623q55 66 139 100t177 34q138 0 238 -67t100 -179zM1958 195l2 2v702
q0 53 -31 84t-84 31h-2v14h268v-784q0 -209 62 -209q39 0 94 84l10 -6q-35 -59 -80 -89t-88 -30q-61 0 -104 49t-47 133q-47 -101 -147 -154t-216 -53q-88 0 -164 28.5t-125 86t-49 131.5q0 60 27 147t59.5 162t59.5 163t27 149q0 82 -32.5 125t-84.5 43q-59 0 -125 -60
l-12 10q100 93 202 93q86 0 144.5 -58.5t58.5 -152.5q0 -63 -44.5 -183t-89 -247.5t-44.5 -208.5q0 -91 71.5 -146t172.5 -55q91 0 175.5 50t135.5 149z" />
    <glyph glyph-name="h_e_p" unicode="hep" horiz-adv-x="3418" 
d="M1010 801q0 -78 -19.5 -154t-48 -139.5t-56.5 -127.5t-47.5 -142.5t-19.5 -159.5q0 -116 41.5 -214.5t113 -168t167 -118t204 -72t224.5 -23.5q124 0 242.5 26.5t224.5 81.5t186 132.5t127 187t47 237.5v748q0 53 -30.5 79t-81.5 17h-5v15l269 41v-277q77 277 327 277
q110 0 199 -46t144.5 -122.5t85.5 -171.5t30 -197q0 -80 -18 -155.5t-55.5 -142.5t-91 -117t-129.5 -79.5t-165 -29.5q-117 0 -180 66.5t-63 162.5q0 116 84 197l10 -11q-76 -82 -76 -184q0 -91 63.5 -154t176.5 -63q98 0 167 63.5t99.5 161t30.5 217.5q0 103 -25 203
t-70 182t-116.5 132.5t-157.5 50.5q-69 0 -123 -42.5t-85 -112t-46.5 -149t-15.5 -163.5v-396q-5 -141 -57.5 -257.5t-137.5 -195.5t-198.5 -133.5t-239.5 -79t-262 -24.5q-121 0 -241.5 20t-229.5 56.5t-203 92t-163 123t-108.5 152.5t-39.5 177q0 99 20 185.5t49 150
t58 123.5t49 132.5t20 151.5q0 89 -71.5 145t-171.5 56q-73 0 -143 -32t-122 -97v-764q0 -52 31 -83.5t82 -31.5h37v-14h-453v14h37q51 0 83 31.5t32 83.5v1257q0 51 -31 77.5t-82 17.5h-4v14l268 41v-623q55 66 139 100t177 34q138 0 238 -67t100 -179zM1753 -20
q-121 0 -219.5 46.5t-159 123.5t-93 172t-32.5 198q0 128 42 229.5t112 163t154 93.5t174 32q107 0 198 -41.5t150 -128t59 -202.5q0 -63 -23.5 -119.5t-69 -102.5t-120.5 -73t-170 -27q-118 0 -189.5 75t-84.5 183l14 6q11 -104 78.5 -177t181.5 -73q120 0 189 91t69 217
q0 80 -28 148t-73.5 112.5t-103.5 69t-118 24.5q-59 0 -111.5 -23.5t-95 -69.5t-67.5 -123.5t-25 -176.5q0 -106 32.5 -213.5t88.5 -195.5t141 -143t182 -55q65 0 121 29t90 72t54 84t24 74l14 -5q-79 -294 -385 -294z" />
    <glyph glyph-name="h_o_p" unicode="hop" horiz-adv-x="3461" 
d="M1010 801q0 -78 -19.5 -154t-48 -139.5t-56.5 -127.5t-47.5 -142.5t-19.5 -159.5q0 -116 42.5 -214.5t116 -168t171.5 -118t209.5 -72t230.5 -23.5q127 0 249 26.5t231.5 81.5t192 132.5t131 187t48.5 237.5v748q0 53 -30.5 79t-81.5 17h-5v15l269 41v-277
q36 128 116.5 202.5t210.5 74.5q110 0 199 -46t144.5 -122.5t85.5 -171.5t30 -197q0 -80 -18 -155.5t-55.5 -142.5t-91 -117t-129.5 -79.5t-165 -29.5q-118 0 -180.5 66.5t-62.5 162.5q0 116 84 197l10 -11q-78 -84 -78 -184q0 -91 64.5 -154t177.5 -63q74 0 132 36t93 98.5
t53.5 140.5t18.5 167q0 103 -25 203t-70 182t-116.5 132.5t-157.5 50.5q-69 0 -123 -42.5t-85 -112t-46.5 -149t-15.5 -163.5v-396q-6 -141 -59.5 -257.5t-140.5 -195.5t-203.5 -133.5t-245.5 -79t-269 -24.5q-149 0 -295 27.5t-274 82t-226 128.5t-155 173.5t-57 209.5
q0 99 20 185.5t49 150t58 123.5t49 132.5t20 151.5q0 89 -71.5 145t-171.5 56q-73 0 -143 -32t-122 -97v-764q0 -52 31 -83.5t82 -31.5h37v-14h-453v14h37q51 0 83 31.5t32 83.5v1257q0 51 -31 77.5t-82 17.5h-4v14l268 41v-623q55 66 139 100t177 34q138 0 238 -67
t100 -179zM1708 -31q-98 0 -181 30.5t-142 82t-100 121t-61 147t-20 158.5q0 103 32 198.5t93 172t159 122.5t220 46t219.5 -46t158 -122.5t92.5 -172t32 -198.5t-32 -198t-92.5 -172t-158.5 -123t-219 -46zM1638 1018q-105 0 -177 -53t-103 -136t-31 -190q0 -148 56 -294
t162 -246.5t233 -100.5q105 0 177 53t103 136t31 190q0 148 -56 294t-162 246.5t-233 100.5z" />
    <glyph glyph-name="h_s" unicode="hs" horiz-adv-x="2228" 
d="M356 129q0 -52 31 -83.5t82 -31.5h37v-14h-453v14h37q51 0 83 31.5t32 83.5v1257q0 51 -31 77.5t-82 17.5h-4v14l268 41v-623q55 66 139 100t177 34q88 0 164 -28t125 -85.5t49 -132.5q0 -60 -27 -135t-59 -135t-59 -136t-27 -137q0 -95 45.5 -168.5t122.5 -117.5
t171.5 -66.5t200.5 -22.5q149 0 284 40t223.5 119.5t88.5 180.5q0 51 -38.5 90t-100.5 65t-137 49t-150 50t-137 61.5t-100.5 90t-38.5 127.5t30.5 128t82.5 89t115 50t134 17q99 0 186 -29.5t144 -89t57 -137.5q0 -43 -29.5 -67.5t-68.5 -24.5q-37 0 -58 24.5t-5 67.5
q16 53 16 88q0 55 -34.5 90.5t-86.5 49.5t-121 14q-74 0 -135 -20t-102 -68t-41 -117q0 -55 39 -96.5t101 -68.5t137.5 -50.5t151 -50.5t137.5 -60t101 -86.5t39 -123.5q0 -78 -43 -146.5t-116 -118.5t-168.5 -86.5t-203 -54.5t-216.5 -18q-98 0 -188.5 14.5t-171 46.5
t-139.5 77.5t-93.5 112t-34.5 146.5q0 55 27.5 132.5t60.5 143t60.5 146t27.5 141.5q0 89 -71.5 145t-171.5 56q-73 0 -143 -32t-122 -95v-766z" />
    <glyph glyph-name="l_i_k" unicode="lik" horiz-adv-x="2306" 
d="M1468 1186v-731l308 389q43 55 43 94q0 34 -32 53t-91 19h-15v14h459v-14h-6q-95 0 -188.5 -45.5t-153.5 -120.5l-193 -246q114 92 246 92q110 0 184 -66.5t74 -179.5q0 -46 -21 -94.5t-45.5 -82t-45.5 -73t-21 -71.5q0 -111 80 -111q64 0 142 64.5t120 156.5l12 -8
q-62 -130 -151.5 -193t-179.5 -63q-76 0 -127 41t-51 103q0 40 21 87t45.5 84t45.5 86t21 93q0 93 -44 148t-116 55q-115 0 -248 -142l-72 -92v-303q0 -52 31 -83.5t82 -31.5h37v-14h-453v14h37q51 0 83 31.5t32 83.5v1098q-6 132 -49 238.5t-110.5 172.5t-150 101
t-171.5 35q-92 0 -176.5 -38t-153 -108.5t-109.5 -185.5t-41 -256v-1057q0 -52 31 -83.5t82 -31.5h37v-14h-453v14h37q51 0 83 31.5t32 83.5v1057q0 117 35.5 216.5t96 169.5t141.5 119.5t171.5 73t186.5 23.5q121 0 232.5 -38.5t201.5 -111t144 -190t54 -262.5zM760 1126
l-6 13q59 30 59 57q0 14 -29.5 48.5t-29.5 62.5q0 32 26 51.5t62 19.5q32 0 56 -21t24 -61q0 -26 -9 -48t-30.5 -41t-35.5 -29t-46 -28t-41 -24zM911 1047v-918q0 -53 31.5 -84t83.5 -31h35v-14h-453v14h37q53 0 84 31t31 84v766q0 52 -31 78.5t-82 17.5h-4v15z" />
    <glyph glyph-name="m_a_f" unicode="maf" horiz-adv-x="3493" 
d="M1567 801q0 -78 -17.5 -154t-42.5 -139.5t-50 -127.5t-42.5 -142.5t-17.5 -159.5q0 -141 61.5 -256t165.5 -187.5t235.5 -111.5t276.5 -39q131 0 256 30.5t238.5 95t198.5 157t135.5 225.5t50.5 291v727h-150v14h150v55q0 105 32.5 187t85.5 129.5t113.5 71.5t124.5 24
q98 0 155.5 -49.5t57.5 -108.5q0 -41 -22.5 -63.5t-53.5 -22.5q-28 0 -49.5 22.5t-21.5 61.5q0 60 -31.5 96.5t-75.5 36.5q-65 0 -114.5 -76.5t-49.5 -222.5v-141h273v-14h-273v-695q0 -178 -53.5 -323.5t-144 -243t-213.5 -164t-258.5 -96t-282.5 -29.5q-181 0 -355 45.5
t-310.5 125t-220 197t-83.5 251.5q0 99 18 185.5t44 150t52 123.5t44 132.5t18 151.5q0 90 -65.5 145.5t-157.5 55.5q-71 0 -139.5 -35.5t-118.5 -105.5q14 -44 14 -80q0 -60 -27 -147t-59 -161.5t-59 -162t-27 -148.5q0 -82 32.5 -125t84.5 -43q59 0 125 57.5t113 161.5
l12 -8q-61 -128 -146.5 -192t-171.5 -64q-85 0 -142.5 59t-57.5 154q0 50 28 136.5t61 166.5t61 175.5t28 160.5q0 90 -65.5 145.5t-157.5 55.5q-134 0 -232 -109v-784q0 -53 31 -84t84 -31h35v-14h-453v14h37q52 0 83.5 31t31.5 84v766q0 52 -31 78.5t-82 17.5h-4v15
l268 41v-113q53 56 128 84.5t155 28.5q98 0 180.5 -41t116.5 -113q52 76 136.5 115t178.5 39q83 0 154.5 -28t117.5 -85.5t46 -132.5zM2523 461h2q38 0 62 -28.5t24 -74.5v-118q0 -211 64 -211q35 0 98 86l12 -6q-37 -61 -82 -91t-90 -30q-65 0 -109 55.5t-44 146.5v160v6
v6.5v5.5t-0.5 5t-2 4t-3.5 3t-5 1q-10 0 -20.5 -22.5t-24 -59t-32 -80.5t-51 -88t-74 -80.5t-107 -59t-145.5 -22.5q-102 0 -168 61t-66 175q0 68 40 118t104 79.5t141.5 54t155.5 50t142 57.5t104 87.5t40 130.5q0 62 -26.5 110.5t-71 76.5t-97.5 42.5t-110 14.5
q-47 0 -85.5 -9.5t-74 -33t-50.5 -70.5t-5 -114q2 -8 2 -21q0 -36 -20 -56t-49 -20q-34 0 -59 26.5t-25 74.5q0 74 62 129t154 81.5t197 26.5q97 0 178.5 -23.5t136 -77.5t54.5 -130q0 -67 -38 -120t-98.5 -88t-133.5 -66t-146 -61.5t-133.5 -65t-98.5 -87t-38 -118.5
q0 -75 47 -116.5t121 -41.5q55 0 97.5 12.5t86 45t80 97.5t65.5 162q13 46 44 72.5t69 26.5z" />
    <glyph glyph-name="m_i_f" unicode="mif" horiz-adv-x="2979" 
d="M1567 801q0 -78 -17.5 -154t-42.5 -139.5t-50 -127.5t-42.5 -142.5t-17.5 -159.5q0 -123 41.5 -222.5t111.5 -162.5t158.5 -97t185.5 -34q90 0 176 27.5t164.5 86t137.5 142t94 203.5t35 262v727h-152l2 14h150v55q0 105 32.5 187t85.5 129.5t113.5 71.5t124.5 24
q97 0 155 -49.5t58 -108.5q0 -40 -23 -63t-53 -23t-51 22.5t-21 61.5q0 60 -31 96.5t-75 36.5q-65 0 -114.5 -76.5t-49.5 -222.5v-141h273v-14h-273v-695q0 -162 -39 -294.5t-105.5 -221t-156.5 -149t-188.5 -87t-206.5 -26.5q-132 0 -260 40.5t-228 110.5t-161.5 172.5
t-61.5 217.5q0 99 18 185.5t44 150t52 123.5t44 132.5t18 151.5q0 90 -65.5 145.5t-157.5 55.5q-71 0 -139.5 -35.5t-118.5 -105.5q14 -44 14 -80q0 -60 -27 -147t-59 -161.5t-59 -162t-27 -148.5q0 -82 32.5 -125t84.5 -43q59 0 125 57.5t113 161.5l12 -8
q-61 -128 -146.5 -192t-171.5 -64q-85 0 -142.5 59t-57.5 154q0 50 28 136.5t61 166.5t61 175.5t28 160.5q0 90 -65.5 145.5t-157.5 55.5q-134 0 -232 -109v-784q0 -53 31 -84t84 -31h35v-14h-453v14h37q52 0 83.5 31t31.5 84v766q0 52 -31 78.5t-82 17.5h-4v15l268 41v-113
q53 56 128 84.5t155 28.5q98 0 180.5 -41t116.5 -113q52 76 136.5 115t178.5 39q83 0 154.5 -28t117.5 -85.5t46 -132.5zM1894 1139q62 32 62 57q0 14 -31 48.5t-31 62.5q0 32 26.5 51.5t61.5 19.5q34 0 57 -21t23 -61q0 -22 -8 -42t-18 -33.5t-30 -29t-32.5 -23t-38 -22
t-34.5 -20.5zM2054 129q0 -53 31 -84t84 -31h35v-14h-453v14h37q51 0 83 31.5t32 83.5v766q0 52 -31 78.5t-82 17.5h-4v15l268 41v-918z" />
    <glyph glyph-name="m_u_f" unicode="muf" horiz-adv-x="3563" 
d="M1567 801q0 -78 -17.5 -154t-42.5 -139.5t-50 -127.5t-42.5 -142.5t-17.5 -159.5q0 -141 64.5 -256t173 -187.5t246 -111.5t288.5 -39q136 0 266 30.5t248 95t207 157t141.5 225.5t52.5 291v727h-149v14h149v55q0 105 32.5 187t85.5 129.5t114 71.5t125 24
q98 0 155.5 -49.5t57.5 -108.5q0 -41 -22.5 -63.5t-53.5 -22.5q-29 0 -50.5 22.5t-21.5 61.5q0 60 -31 96.5t-75 36.5q-65 0 -114.5 -76.5t-49.5 -222.5v-141h272v-14h-272v-695q0 -178 -55.5 -323.5t-149 -243t-221 -164t-268 -96t-293.5 -29.5q-188 0 -368.5 45.5
t-321.5 125t-227.5 197t-86.5 251.5q0 99 18 185.5t44 150t52 123.5t44 132.5t18 151.5q0 90 -65.5 145.5t-157.5 55.5q-71 0 -139.5 -35.5t-118.5 -105.5q14 -44 14 -80q0 -60 -27 -147t-59 -161.5t-59 -162t-27 -148.5q0 -82 32.5 -125t84.5 -43q59 0 125 57.5t113 161.5
l12 -8q-61 -128 -146.5 -192t-171.5 -64q-85 0 -142.5 59t-57.5 154q0 50 28 136.5t61 166.5t61 175.5t28 160.5q0 90 -65.5 145.5t-157.5 55.5q-134 0 -232 -109v-784q0 -53 31 -84t84 -31h35v-14h-453v14h37q52 0 83.5 31t31.5 84v766q0 52 -31 78.5t-82 17.5h-4v15
l268 41v-113q53 56 128 84.5t155 28.5q98 0 180.5 -41t116.5 -113q52 76 136.5 115t178.5 39q83 0 154.5 -28t117.5 -85.5t46 -132.5zM2511 180v705q0 52 -31 83t-82 31h-4v15h268v-785q0 -209 64 -209q39 0 94 84l8 -6q-71 -118 -168 -118q-60 0 -102.5 49t-46.5 133
q-47 -101 -147 -154t-216 -53q-137 0 -237.5 67.5t-100.5 178.5q0 60 26.5 147t58.5 161.5t58.5 162.5t26.5 149q0 82 -31 125t-83 43q-62 0 -127 -59l-10 10q96 92 202 92q85 0 143 -59t58 -152q0 -63 -44 -183t-88 -247t-44 -209q0 -91 71 -145.5t173 -54.5
q91 0 174.5 49.5t136.5 148.5z" />
    <glyph glyph-name="m_e_f" unicode="mef" horiz-adv-x="3493" 
d="M1567 801q0 -78 -17.5 -154t-42.5 -139.5t-50 -127.5t-42.5 -142.5t-17.5 -159.5q0 -141 61.5 -256t165.5 -187.5t235.5 -111.5t276.5 -39q131 0 256 30.5t238.5 95t198.5 157t135.5 225.5t50.5 291v727h-150v14h150v55q0 105 32.5 187t85.5 129.5t113.5 71.5t124.5 24
q98 0 155.5 -49.5t57.5 -108.5q0 -41 -22.5 -63.5t-53.5 -22.5q-28 0 -49.5 22.5t-21.5 61.5q0 60 -31.5 96.5t-75.5 36.5q-65 0 -114.5 -76.5t-49.5 -222.5v-141h273v-14h-273v-695q0 -178 -53.5 -323.5t-144 -243t-213.5 -164t-258.5 -96t-282.5 -29.5q-181 0 -355 45.5
t-310.5 125t-220 197t-83.5 251.5q0 99 18 185.5t44 150t52 123.5t44 132.5t18 151.5q0 90 -65.5 145.5t-157.5 55.5q-71 0 -139.5 -35.5t-118.5 -105.5q14 -44 14 -80q0 -60 -27 -147t-59 -161.5t-59 -162t-27 -148.5q0 -82 32.5 -125t84.5 -43q59 0 125 57.5t113 161.5
l12 -8q-61 -128 -146.5 -192t-171.5 -64q-85 0 -142.5 59t-57.5 154q0 50 28 136.5t61 166.5t61 175.5t28 160.5q0 90 -65.5 145.5t-157.5 55.5q-134 0 -232 -109v-784q0 -53 31 -84t84 -31h35v-14h-453v14h37q52 0 83.5 31t31.5 84v766q0 52 -31 78.5t-82 17.5h-4v15
l268 41v-113q53 56 128 84.5t155 28.5q98 0 180.5 -41t116.5 -113q52 76 136.5 115t178.5 39q83 0 154.5 -28t117.5 -85.5t46 -132.5zM2312 -20q-121 0 -219.5 46.5t-159 123.5t-93 172t-32.5 198q0 128 42 229.5t112 163t154 93.5t174 32q107 0 197.5 -41.5t149 -128
t58.5 -202.5q0 -63 -23.5 -119.5t-69 -102.5t-120 -73t-168.5 -27q-119 0 -190 75t-84 185l12 6q11 -105 79.5 -178.5t182.5 -73.5q81 0 140.5 44.5t87.5 113.5t28 150q0 159 -96.5 256.5t-224.5 97.5q-59 0 -111.5 -23.5t-95 -69.5t-67.5 -123.5t-25 -176.5
q0 -106 32.5 -213.5t88.5 -195.5t141 -143t182 -55q65 0 121 29t90 72t54 84t24 74l14 -5q-79 -294 -385 -294z" />
    <glyph glyph-name="m_o_f" unicode="mof" horiz-adv-x="3549" 
d="M1567 801q0 -78 -17.5 -154t-42.5 -139.5t-50 -127.5t-42.5 -142.5t-17.5 -159.5q0 -141 64 -256t171.5 -187.5t244 -111.5t286.5 -39q134 0 263 30.5t246 95t205.5 157t140.5 225.5t52 291v153l2 574h-152v14h152v55q0 105 32 187t84.5 129.5t113 71.5t124.5 24
q98 0 155.5 -49.5t57.5 -108.5q0 -41 -22 -63.5t-53 -22.5q-29 0 -50.5 22.5t-21.5 61.5q0 60 -31.5 96.5t-75.5 36.5q-65 0 -114 -76t-49 -223v-141h272v-14h-272v-695q0 -178 -55 -323.5t-148 -243t-219.5 -164t-266.5 -96t-292 -29.5q-186 0 -365 45.5t-319 125t-226 197
t-86 251.5q0 99 18 185.5t44 150t52 123.5t44 132.5t18 151.5q0 90 -65.5 145.5t-157.5 55.5q-71 0 -139.5 -35.5t-118.5 -105.5q14 -44 14 -80q0 -60 -27 -147t-59 -161.5t-59 -162t-27 -148.5q0 -82 32.5 -125t84.5 -43q59 0 125 57.5t113 161.5l12 -8
q-61 -128 -146.5 -192t-171.5 -64q-85 0 -142.5 59t-57.5 154q0 50 28 136.5t61 166.5t61 175.5t28 160.5q0 90 -65.5 145.5t-157.5 55.5q-134 0 -232 -109v-784q0 -53 31 -84t84 -31h35v-14h-453v14h37q52 0 83.5 31t31.5 84v766q0 52 -31 78.5t-82 17.5h-4v15l268 41v-113
q53 56 128 84.5t155 28.5q98 0 180.5 -41t116.5 -113q52 76 136.5 115t178.5 39q83 0 154.5 -28t117.5 -85.5t46 -132.5zM2279 -31q-122 0 -220 46t-159 122.5t-93.5 172t-32.5 198.5t32.5 198t93.5 172t159.5 123t219.5 46q97 0 180 -30.5t141.5 -82t99.5 -121t61 -147
t20 -158.5q0 -103 -32 -198.5t-93 -172t-158.5 -122.5t-218.5 -46zM2210 1018q-80 0 -141.5 -30.5t-98.5 -83.5t-55.5 -120.5t-18.5 -146.5q0 -87 21 -177.5t61.5 -172.5t94.5 -147t126 -103.5t150 -38.5q105 0 176.5 53t102 136t30.5 190q0 109 -33.5 222t-91 206.5
t-143 153t-180.5 59.5z" />
    <glyph glyph-name="m_a_p" unicode="map" horiz-adv-x="4030" 
d="M1567 801q0 -78 -19.5 -154t-47.5 -139.5t-56.5 -127.5t-48 -142.5t-19.5 -159.5q0 -116 43 -214.5t116.5 -168t172.5 -118t211.5 -72t232.5 -23.5q128 0 250.5 26.5t232.5 81.5t193 132.5t132 187t49 237.5v748q0 52 -31 78.5t-82 17.5h-4v15l268 41v-277
q36 128 117.5 202.5t210.5 74.5q110 0 199 -46t144.5 -122.5t85 -171.5t29.5 -197q0 -80 -18 -155t-55.5 -142.5t-90.5 -117.5t-129 -79.5t-165 -29.5q-117 0 -179.5 66.5t-62.5 162.5q0 115 82 197l12 -11q-78 -81 -78 -184q0 -91 63.5 -154t176.5 -63q98 0 167.5 63.5
t100.5 161t31 217.5q0 103 -25 203t-70.5 182t-117.5 132.5t-158 50.5q-69 0 -123 -42.5t-85 -112t-46.5 -149t-15.5 -163.5v-396q-5 -141 -59 -257.5t-141 -195.5t-204.5 -133.5t-247 -79t-270.5 -24.5q-188 0 -369 44.5t-324.5 123t-231.5 197.5t-88 256q0 99 20 185.5
t49 150t58 123.5t49 132.5t20 151.5q0 90 -65.5 145.5t-157.5 55.5q-71 0 -139.5 -35.5t-118.5 -105.5q14 -44 14 -80q0 -60 -27 -147t-59 -161.5t-59 -162t-27 -148.5q0 -82 32.5 -125t84.5 -43q59 0 125 57.5t113 161.5l12 -8q-61 -128 -146.5 -192t-171.5 -64
q-85 0 -142.5 59t-57.5 154q0 50 28 136.5t61 166.5t61 175.5t28 160.5q0 90 -65.5 145.5t-157.5 55.5q-134 0 -232 -109v-784q0 -53 31 -84t84 -31h35v-14h-453v14h37q52 0 83.5 31t31.5 84v766q0 52 -31 78.5t-82 17.5h-4v15l268 41v-113q53 56 128 84.5t155 28.5
q98 0 180.5 -41t116.5 -113q52 76 136.5 115t178.5 39q83 0 154.5 -28t117.5 -85.5t46 -132.5zM2542 461h2q40 0 64 -28.5t24 -74.5v-118q0 -211 61 -211q38 0 98 86l13 -6q-37 -61 -82 -91t-90 -30q-64 0 -108 55.5t-44 146.5v160v5v4.5v4.5v5t-0.5 4t-1.5 3t-2 2.5t-2.5 2
t-3.5 0.5q-10 0 -20.5 -22.5t-24.5 -59t-33 -80.5t-51.5 -88t-74.5 -80.5t-107.5 -59t-145.5 -22.5q-102 0 -167.5 61t-65.5 175q0 68 40 118t104 79.5t141.5 54t155.5 50t142 57.5t104 87.5t40 130.5q0 82 -46 139t-113 81t-146 24q-47 0 -85.5 -9.5t-73.5 -33t-50 -70.5
t-4 -114q0 -97 -68 -97q-34 0 -60 26.5t-26 74.5q0 74 62 129t154.5 81.5t197.5 26.5q97 0 178 -23.5t135.5 -77.5t54.5 -130q0 -67 -38 -120t-98.5 -88t-133.5 -66t-146 -61.5t-133.5 -65t-98.5 -87t-38 -118.5q0 -75 47 -116.5t121 -41.5q55 0 98 12.5t87 45t80.5 97.5
t64.5 162q13 46 44 72.5t69 26.5z" />
    <glyph glyph-name="m_i_p" unicode="mip" horiz-adv-x="3434" 
d="M1876 1139q61 31 61 57q0 14 -30.5 48.5t-30.5 62.5q0 32 26.5 51.5t61.5 19.5q34 0 57 -21t23 -61q0 -26 -8.5 -47.5t-31 -41.5t-34.5 -29t-47 -28.5t-41 -23.5zM1567 801q0 -78 -19.5 -154t-47.5 -139.5t-56.5 -127.5t-48 -142.5t-19.5 -159.5q0 -125 41 -226
t110.5 -163.5t156 -95.5t182.5 -33q103 0 199 38t174.5 109t126 185.5t47.5 254.5v748q0 52 -31 78.5t-82 17.5h-4v15l268 41v-277q36 129 117.5 203t210.5 74q110 0 199 -46t144.5 -122.5t85.5 -171.5t30 -197q0 -80 -18 -155.5t-55.5 -142.5t-91 -117t-129.5 -79.5
t-165 -29.5q-117 0 -179.5 66.5t-62.5 162.5q0 118 82 197l10 -11q-76 -82 -76 -184q0 -91 63.5 -154t176.5 -63q98 0 167.5 63.5t100.5 161t31 217.5q0 103 -25 203t-70.5 182t-117.5 132.5t-158 50.5q-69 0 -123 -42.5t-85 -112t-46.5 -149t-15.5 -163.5v-396
q-4 -126 -41.5 -229.5t-97.5 -173t-140.5 -117t-169.5 -69t-186 -21.5q-130 0 -256 39.5t-225.5 108t-161 172t-61.5 221.5q0 99 20 185.5t49 150t58 123.5t49 132.5t20 151.5q0 90 -65.5 145.5t-157.5 55.5q-71 0 -139.5 -35.5t-118.5 -105.5q14 -44 14 -80q0 -60 -27 -147
t-59 -161.5t-59 -162t-27 -148.5q0 -82 32.5 -125t84.5 -43q59 0 125 57.5t113 161.5l12 -8q-61 -128 -146.5 -192t-171.5 -64q-85 0 -142.5 59t-57.5 154q0 50 28 136.5t61 166.5t61 175.5t28 160.5q0 90 -65.5 145.5t-157.5 55.5q-134 0 -232 -109v-784q0 -53 31 -84
t84 -31h35v-14h-453v14h37q52 0 83.5 31t31.5 84v766q0 52 -31 78.5t-82 17.5h-4v15l268 41v-113q53 56 128 84.5t155 28.5q98 0 180.5 -41t116.5 -113q52 76 136.5 115t178.5 39q83 0 154.5 -28t117.5 -85.5t46 -132.5zM2036 129q0 -53 31 -84t83 -31h35v-14h-452v14h36
q51 0 83 31.5t32 83.5v766q0 53 -30.5 79t-81.5 17h-5v15l269 41v-918z" />
    <glyph glyph-name="m_u_p" unicode="mup" horiz-adv-x="4075" 
d="M1567 801q0 -78 -19.5 -154t-47.5 -139.5t-56.5 -127.5t-48 -142.5t-19.5 -159.5q0 -116 44 -214.5t119.5 -168t177.5 -118t217.5 -72t238.5 -23.5q132 0 258.5 26.5t240 81.5t199 132.5t135.5 187t50 237.5v748q0 52 -31 78.5t-82 17.5h-4v15l268 41v-277
q36 129 117 203t211 74q110 0 199 -46t144.5 -122.5t85.5 -171.5t30 -197q0 -80 -18 -155.5t-55.5 -142.5t-91 -117t-129.5 -79.5t-165 -29.5q-118 0 -181 66.5t-63 162.5q0 116 84 197l10 -11q-75 -81 -75 -184q0 -92 63 -154.5t176 -62.5q74 0 132 36t93 98.5t53.5 140.5
t18.5 167q0 103 -24.5 203t-69.5 182t-116.5 132.5t-157.5 50.5q-69 0 -123 -42.5t-85.5 -112t-47 -149t-15.5 -163.5v-396q-6 -141 -61 -257.5t-144.5 -195.5t-209.5 -133.5t-252.5 -79t-276.5 -24.5q-154 0 -304.5 27.5t-282.5 82t-233 128.5t-159.5 173.5t-58.5 209.5
q0 99 20 185.5t49 150t58 123.5t49 132.5t20 151.5q0 90 -65.5 145.5t-157.5 55.5q-71 0 -139.5 -35.5t-118.5 -105.5q14 -44 14 -80q0 -60 -27 -147t-59 -161.5t-59 -162t-27 -148.5q0 -82 32.5 -125t84.5 -43q59 0 125 57.5t113 161.5l12 -8q-61 -128 -146.5 -192
t-171.5 -64q-85 0 -142.5 59t-57.5 154q0 50 28 136.5t61 166.5t61 175.5t28 160.5q0 90 -65.5 145.5t-157.5 55.5q-134 0 -232 -109v-784q0 -53 31 -84t84 -31h35v-14h-453v14h37q52 0 83.5 31t31.5 84v766q0 52 -31 78.5t-82 17.5h-4v15l268 41v-113q53 56 128 84.5
t155 28.5q98 0 180.5 -41t116.5 -113q52 76 136.5 115t178.5 39q83 0 154.5 -28t117.5 -85.5t46 -132.5zM2517 195l2 2v702q0 52 -32 83.5t-83 31.5h-2v14h269v-784q0 -207 61 -207q38 0 94 82l8 -6q-34 -59 -78.5 -89t-89.5 -30q-59 0 -102 49t-47 133q-47 -101 -147 -154
t-216 -53q-137 0 -237 67.5t-100 178.5q0 60 26.5 147t58.5 162t58.5 163t26.5 149q0 82 -31.5 125t-83.5 43q-59 0 -125 -60l-12 10q97 93 202 93q86 0 143.5 -58.5t57.5 -152.5q1 -51 -26.5 -138t-60.5 -167t-61 -174.5t-28 -159.5q0 -91 71.5 -146t172.5 -55
q91 0 175.5 50t135.5 149z" />
    <glyph glyph-name="m_e_p" unicode="mep" horiz-adv-x="4030" 
d="M1567 801q0 -78 -19.5 -154t-47.5 -139.5t-56.5 -127.5t-48 -142.5t-19.5 -159.5q0 -116 43 -214.5t116.5 -168t172.5 -118t211.5 -72t232.5 -23.5q128 0 250.5 26.5t232.5 81.5t193 132.5t132 187t49 237.5v748q0 52 -31 78.5t-82 17.5h-4v15l268 41v-277
q36 128 117.5 202.5t210.5 74.5q110 0 199 -46t144.5 -122.5t85 -171.5t29.5 -197q0 -80 -18 -155t-55.5 -142.5t-90.5 -117.5t-129 -79.5t-165 -29.5q-117 0 -179.5 66.5t-62.5 162.5q0 115 82 197l12 -11q-78 -81 -78 -184q0 -91 63.5 -154t176.5 -63q98 0 167.5 63.5
t100.5 161t31 217.5q0 103 -25 203t-70.5 182t-117.5 132.5t-158 50.5q-69 0 -123 -42.5t-85 -112t-46.5 -149t-15.5 -163.5v-396q-5 -141 -59 -257.5t-141 -195.5t-204.5 -133.5t-247 -79t-270.5 -24.5q-188 0 -369 44.5t-324.5 123t-231.5 197.5t-88 256q0 99 20 185.5
t49 150t58 123.5t49 132.5t20 151.5q0 90 -65.5 145.5t-157.5 55.5q-71 0 -139.5 -35.5t-118.5 -105.5q14 -44 14 -80q0 -60 -27 -147t-59 -161.5t-59 -162t-27 -148.5q0 -82 32.5 -125t84.5 -43q59 0 125 57.5t113 161.5l12 -8q-61 -128 -146.5 -192t-171.5 -64
q-85 0 -142.5 59t-57.5 154q0 50 28 136.5t61 166.5t61 175.5t28 160.5q0 90 -65.5 145.5t-157.5 55.5q-134 0 -232 -109v-784q0 -53 31 -84t84 -31h35v-14h-453v14h37q52 0 83.5 31t31.5 84v766q0 52 -31 78.5t-82 17.5h-4v15l268 41v-113q53 56 128 84.5t155 28.5
q98 0 180.5 -41t116.5 -113q52 76 136.5 115t178.5 39q83 0 154.5 -28t117.5 -85.5t46 -132.5zM2304 -20q-121 0 -219.5 46.5t-159 123.5t-93 172t-32.5 198q0 128 42 229.5t112 163t154.5 93.5t175.5 32q79 0 151 -24.5t129 -70t91 -117.5t34 -160q0 -63 -23.5 -119.5
t-69 -102.5t-120.5 -73t-170 -27q-117 0 -188 75t-84 183l12 6q11 -104 79.5 -177t182.5 -73q81 0 140.5 44.5t87.5 113.5t28 150q0 80 -28 148t-73.5 112.5t-103.5 69t-118 24.5q-59 0 -111.5 -23.5t-95 -69.5t-67.5 -123.5t-25 -176.5q0 -106 32.5 -213.5t88.5 -195.5
t141 -143t182 -55q65 0 121 29t90 72t54 84t24 74l14 -5q-79 -294 -385 -294z" />
    <glyph glyph-name="m_o_p" unicode="mop" horiz-adv-x="4030" 
d="M1567 801q0 -78 -19.5 -154t-47.5 -139.5t-56.5 -127.5t-48 -142.5t-19.5 -159.5q0 -116 43 -214.5t116.5 -168t172.5 -118t211.5 -72t232.5 -23.5q128 0 250.5 26.5t232.5 81.5t193 132.5t132 187t49 237.5v748q0 52 -31 78.5t-82 17.5h-4v15l268 41v-277
q36 128 117.5 202.5t210.5 74.5q110 0 199 -46t144.5 -122.5t85 -171.5t29.5 -197q0 -80 -18 -155t-55.5 -142.5t-90.5 -117.5t-129 -79.5t-165 -29.5q-117 0 -179.5 66.5t-62.5 162.5q0 115 82 197l12 -11q-78 -81 -78 -184q0 -91 63.5 -154t176.5 -63q98 0 167.5 63.5
t100.5 161t31 217.5q0 103 -25 203t-70.5 182t-117.5 132.5t-158 50.5q-69 0 -123 -42.5t-85 -112t-46.5 -149t-15.5 -163.5v-396q-5 -141 -59 -257.5t-141 -195.5t-204.5 -133.5t-247 -79t-270.5 -24.5q-188 0 -369 44.5t-324.5 123t-231.5 197.5t-88 256q0 99 20 185.5
t49 150t58 123.5t49 132.5t20 151.5q0 90 -65.5 145.5t-157.5 55.5q-71 0 -139.5 -35.5t-118.5 -105.5q14 -44 14 -80q0 -60 -27 -147t-59 -161.5t-59 -162t-27 -148.5q0 -82 32.5 -125t84.5 -43q59 0 125 57.5t113 161.5l12 -8q-61 -128 -146.5 -192t-171.5 -64
q-85 0 -142.5 59t-57.5 154q0 50 28 136.5t61 166.5t61 175.5t28 160.5q0 90 -65.5 145.5t-157.5 55.5q-134 0 -232 -109v-784q0 -53 31 -84t84 -31h35v-14h-453v14h37q52 0 83.5 31t31.5 84v766q0 52 -31 78.5t-82 17.5h-4v15l268 41v-113q53 56 128 84.5t155 28.5
q98 0 180.5 -41t116.5 -113q52 76 136.5 115t178.5 39q83 0 154.5 -28t117.5 -85.5t46 -132.5zM2275 -31q-98 0 -181 30.5t-141.5 82t-100 121t-61 146.5t-19.5 159t19.5 159.5t61 146.5t100 121t141.5 82t181 30q121 0 218.5 -46t158.5 -122.5t93 -172t32 -198.5
q0 -81 -20 -158.5t-61 -147t-99.5 -121t-141.5 -82t-180 -30.5zM2206 1018q-106 0 -178.5 -53t-104 -136.5t-31.5 -191.5q0 -87 21 -177.5t61.5 -172.5t94.5 -147t126 -103.5t150 -38.5q105 0 177 53t103 136t31 190q0 109 -34 223t-91.5 207t-143.5 152t-181 59z" />
    <glyph glyph-name="m_s" unicode="ms" horiz-adv-x="2701" 
d="M2619 285q0 -78 -43 -146.5t-116 -118.5t-168.5 -86.5t-203 -54.5t-216.5 -18q-125 0 -235.5 24t-199 71t-140.5 125t-52 177q0 55 27.5 132.5t60.5 143t60.5 146t27.5 141.5q0 90 -65.5 145.5t-159.5 55.5q-69 0 -137.5 -35t-120.5 -104q16 -40 16 -82q0 -60 -27 -147
t-59 -161.5t-59 -162t-27 -148.5q0 -82 32.5 -125t84.5 -43q59 0 125 57.5t113 161.5l12 -8q-61 -128 -146.5 -192t-171.5 -64q-85 0 -142.5 59t-57.5 154q0 50 28 136.5t61 166.5t61 175.5t28 160.5q0 90 -65.5 145.5t-157.5 55.5q-134 0 -232 -109v-784q0 -53 31 -84
t84 -31h35v-14h-453v14h37q52 0 83.5 31t31.5 84v766q0 52 -31 78.5t-82 17.5h-4v15l268 41v-113q53 56 128 84.5t155 28.5q97 0 179 -40.5t118 -111.5q52 75 135.5 113.5t177.5 38.5q130 0 225 -67t95 -179q0 -60 -27 -135t-59 -135t-59 -136t-27 -137q0 -95 45.5 -168.5
t122.5 -117.5t171.5 -66.5t200.5 -22.5q149 0 284 40t223.5 119.5t88.5 180.5q0 51 -38.5 90t-100.5 65t-137 49t-150 50t-137 61.5t-100.5 90t-38.5 127.5t30.5 128t82.5 89t115 50t134 17q99 0 186 -29.5t144 -89t57 -137.5q0 -43 -29.5 -67.5t-68.5 -24.5q-37 0 -58 24.5
t-5 67.5q16 53 16 88q0 81 -68 117.5t-176 36.5q-73 0 -134 -20t-102.5 -68t-41.5 -117q0 -55 39 -96.5t101.5 -68.5t138 -50.5t151 -50.5t138 -60t101.5 -86.5t39 -123.5z" />
    <glyph glyph-name="n_a_f" unicode="naf" horiz-adv-x="2899" 
d="M1010 801q0 -78 -17.5 -154t-42.5 -139.5t-50 -127.5t-42.5 -142.5t-17.5 -159.5q0 -141 60.5 -256t162.5 -187.5t230.5 -111.5t269.5 -39q127 0 249 30.5t232.5 95t194 157t133 225.5t49.5 291v727h-152v14h152v55q0 105 32 187t84.5 129.5t113 71.5t124.5 24
q98 0 156.5 -49.5t58.5 -108.5q0 -40 -23 -63t-53 -23t-50.5 22.5t-20.5 61.5q0 59 -32 96t-75 37q-65 0 -114.5 -76.5t-49.5 -222.5v-141h273v-14h-273v-695q0 -178 -52.5 -323.5t-141.5 -243t-210 -164t-253.5 -96t-276.5 -29.5q-178 0 -349 45.5t-304.5 125t-215 197
t-81.5 251.5q0 99 18 185.5t44 150t52 123.5t44 132.5t18 151.5q0 89 -71.5 145t-171.5 56q-73 0 -143.5 -32t-123.5 -97v-764q0 -53 31 -84t84 -31h35v-14h-453v14h37q52 0 83.5 31t31.5 84v766q0 52 -31 78.5t-82 17.5h-4v15l268 41v-134q56 67 140.5 100.5t177.5 33.5
q138 0 238 -67t100 -179zM1950 463h2q38 0 62 -28.5t24 -74.5v-118q0 -211 61 -211q39 0 99 86l12 -6q-37 -60 -81.5 -90.5t-88.5 -30.5q-65 0 -109.5 56t-44.5 147v159q0 3 0.5 8.5t0 8.5t-1 7t-3 5.5t-6.5 1.5q-10 0 -20.5 -22.5t-24.5 -59t-33 -80.5t-51.5 -88
t-74.5 -80.5t-107.5 -59t-145.5 -22.5q-102 0 -166.5 61t-64.5 175q0 68 40 118t104 79.5t141.5 54t155.5 50t142 57.5t104 87.5t40 130.5q0 82 -47 138.5t-113.5 80t-144.5 23.5q-30 0 -56.5 -3.5t-55.5 -13t-49 -25.5t-37 -41t-19.5 -60t2.5 -82q2 -8 2 -21
q0 -36 -20 -55.5t-50 -19.5q-34 0 -59 26t-25 74q0 74 61.5 129t153.5 81.5t197 26.5q98 0 179 -23.5t135 -77.5t54 -130q0 -67 -37.5 -120t-98 -88t-133.5 -66t-146 -61.5t-133.5 -65t-98 -87t-37.5 -118.5q0 -75 47 -116.5t121 -41.5q55 0 97.5 12.5t86.5 45.5t80.5 98
t65.5 162q12 45 43 71.5t70 26.5z" />
    <glyph glyph-name="n_u_f" unicode="nuf" horiz-adv-x="2979" 
d="M1010 801q0 -78 -17.5 -154t-42.5 -139.5t-50 -127.5t-42.5 -142.5t-17.5 -159.5q0 -141 63.5 -256t170 -187.5t241.5 -111.5t284 -39q134 0 262 30.5t244.5 95t204 157t139.5 225.5t52 291v727h-152l2 14h150v55q0 105 32 187t84.5 129.5t113 71.5t124.5 24
q98 0 156.5 -49.5t58.5 -108.5q0 -40 -23 -63t-53 -23t-51 22.5t-21 61.5q0 60 -31 96.5t-75 36.5q-65 0 -114.5 -76.5t-49.5 -222.5v-141h273v-14h-273v-695q0 -149 -38 -275.5t-106.5 -219t-159.5 -163t-201 -113t-227.5 -64t-242.5 -21.5q-185 0 -363 45.5t-317 125
t-224 197t-85 251.5q0 99 18 185.5t44 150t52 123.5t44 132.5t18 151.5q0 89 -71.5 145t-171.5 56q-73 0 -143.5 -32t-123.5 -97v-764q0 -53 31 -84t84 -31h35v-14h-453v14h37q52 0 83.5 31t31.5 84v766q0 52 -31 78.5t-82 17.5h-4v15l268 41v-134q56 67 140.5 100.5
t177.5 33.5q138 0 238 -67t100 -179zM1964 195l2 2v702q0 52 -31 83.5t-82 31.5h-4v14h269v-784q0 -209 63 -209q39 0 94 84l9 -6q-71 -119 -168 -119q-60 0 -103 49t-47 133q-47 -101 -147 -154t-215 -53q-88 0 -165 28.5t-126 86t-49 131.5q0 60 27 147t59 162t59 163
t27 149q0 82 -31.5 125t-83.5 43q-61 0 -127 -60l-10 10q97 93 202 93q85 0 143 -59t58 -152q0 -63 -44 -183t-88 -247t-44 -209q0 -91 70.5 -146t171.5 -55q92 0 176 50t135 149z" />
    <glyph glyph-name="n_o_f" unicode="nof" horiz-adv-x="2924" 
d="M1010 801q0 -78 -17.5 -154t-42.5 -139.5t-50 -127.5t-42.5 -142.5t-17.5 -159.5q0 -114 40 -211t109.5 -166.5t162.5 -119t200 -73.5t221 -24q130 0 254 30.5t236.5 95t197 157t134.5 225.5t50 291v727h-151v14h151v55q0 105 32 187t85 129.5t113.5 71.5t124.5 24
q98 0 155.5 -49.5t57.5 -108.5q0 -40 -22 -63t-52 -23t-51 22.5t-21 61.5q0 59 -32 96t-76 37q-63 0 -112.5 -76.5t-49.5 -222.5v-141h272l-2 -14h-270v-695q0 -178 -53.5 -323.5t-143 -243t-212 -164t-257 -96t-280.5 -29.5q-180 0 -353.5 45.5t-308.5 125t-218 197
t-83 251.5q0 99 18 185.5t44 150t52 123.5t44 132.5t18 151.5q0 89 -71.5 145t-171.5 56q-73 0 -143.5 -32t-123.5 -97v-764q0 -53 31 -84t84 -31h35v-14h-453v14h37q52 0 83.5 31t31.5 84v766q0 52 -31 78.5t-82 17.5h-4v15l268 41v-134q56 67 140.5 100.5t177.5 33.5
q138 0 238 -67t100 -179zM1700 -31q-98 0 -181 30.5t-142 82t-100 121t-61 147t-20 158.5q0 103 32 198.5t93 172t159 122.5t220 46t220 -46t159 -122.5t93 -172t32 -198.5q0 -81 -20 -158.5t-61 -147t-100 -121t-142 -82t-181 -30.5zM1630 1018q-105 0 -177 -53
t-103 -136.5t-31 -191.5q0 -109 33.5 -222t91 -206t143.5 -152t182 -59q80 0 141 30t97.5 83t55 120t18.5 146q0 148 -56 294t-162 246.5t-233 100.5z" />
    <glyph glyph-name="n_u_p" unicode="nup" horiz-adv-x="3446" 
d="M1010 801q0 -78 -19.5 -154t-48 -139.5t-56.5 -127.5t-47.5 -142.5t-19.5 -159.5q0 -116 42 -214.5t115 -168t170.5 -118t208 -72t228.5 -23.5q126 0 247 26.5t229 81.5t190 132.5t130 187t48 237.5v748q0 52 -31 78.5t-82 17.5h-4v15l268 41v-277q36 129 117 203t211 74
q110 0 199 -46t144.5 -122.5t85.5 -171.5t30 -197q0 -80 -18 -155.5t-55.5 -142.5t-91 -117t-129.5 -79.5t-165 -29.5q-118 0 -181 66.5t-63 162.5q0 116 84 197l11 -11q-76 -82 -76 -184q0 -92 63 -154.5t176 -62.5q74 0 132 36t93 98.5t53.5 140.5t18.5 167
q0 103 -24.5 203t-69.5 182t-116.5 132.5t-157.5 50.5q-69 0 -123 -42.5t-85.5 -112t-47 -149t-15.5 -163.5v-396q-4 -118 -42 -219t-102 -175.5t-148.5 -132t-185.5 -93t-209.5 -53t-223.5 -17.5q-185 0 -363.5 44.5t-320 123t-228.5 197.5t-87 256q0 99 20 185.5t49 150
t58 123.5t49 132.5t20 151.5q0 89 -71.5 145t-171.5 56q-73 0 -143.5 -32t-123.5 -97v-764q0 -53 31 -84t84 -31h35v-14h-453v14h37q52 0 83.5 31t31.5 84v766q0 52 -31 78.5t-82 17.5h-4v15l268 41v-134q56 67 140.5 100.5t177.5 33.5q138 0 238 -67t100 -179zM1901 195
l2 2v702q0 52 -31 83.5t-82 31.5h-4v14h268v-784q0 -207 64 -207q38 0 94 82l8 -6q-71 -119 -168 -119q-60 0 -102.5 49t-46.5 133q-47 -101 -147 -154t-216 -53q-88 0 -165 28.5t-126 86t-49 131.5q0 60 27 147t59 162t59 163t27 149q0 82 -31.5 125t-83.5 43
q-61 0 -127 -60l-10 10q97 93 203 93q85 0 143 -59t58 -152q0 -63 -44 -183t-88 -247t-44 -209q0 -91 70 -146t171 -55q92 0 176.5 50t135.5 149z" />
    <glyph glyph-name="n_e_p" unicode="nep" horiz-adv-x="3391" 
d="M1010 801q0 -78 -19.5 -154t-48 -139.5t-56.5 -127.5t-47.5 -142.5t-19.5 -159.5q0 -116 40.5 -214.5t111 -168t164.5 -118t200.5 -72t220.5 -23.5q121 0 237.5 26.5t221 81.5t183.5 132.5t125.5 187t46.5 237.5v748q0 52 -31 78.5t-82 17.5h-4v15l268 41v-277
q36 128 117 202.5t211 74.5q110 0 199 -46t144.5 -122.5t85.5 -171.5t30 -197q0 -80 -18 -155.5t-55.5 -142.5t-91 -117t-129.5 -79.5t-165 -29.5q-117 0 -180.5 66.5t-63.5 162.5q0 116 84 197l10 -11q-76 -82 -76 -184q0 -91 63.5 -154t176.5 -63q74 0 132 36t93 98.5
t53.5 140.5t18.5 167q0 103 -25 203t-70 182t-116.5 132.5t-157.5 50.5q-69 0 -123 -42.5t-85 -112t-46.5 -149t-15.5 -163.5v-396q-5 -141 -56.5 -257.5t-135.5 -195.5t-196.5 -133.5t-236.5 -79t-258 -24.5q-180 0 -353 44.5t-310.5 123t-222 197.5t-84.5 256
q0 99 20 185.5t49 150t58 123.5t49 132.5t20 151.5q0 89 -71.5 145t-171.5 56q-73 0 -143.5 -32t-123.5 -97v-764q0 -53 31 -84t84 -31h35v-14h-453v14h37q52 0 83.5 31t31.5 84v766q0 52 -31 78.5t-82 17.5h-4v15l268 41v-134q56 67 140.5 100.5t177.5 33.5q138 0 238 -67
t100 -179zM1729 -20q-121 0 -219.5 46.5t-159 123.5t-93 172t-32.5 198q0 128 42.5 229.5t112.5 163t154 93.5t174 32q107 0 198 -41.5t149.5 -128t58.5 -202.5q0 -63 -23.5 -119.5t-69 -102.5t-120 -73t-168.5 -27q-119 0 -190.5 75t-84.5 183l12 6q11 -104 80 -177
t183 -73q81 0 140.5 44.5t87.5 113.5t28 150q0 158 -98 256t-224 98q-59 0 -111.5 -23.5t-95.5 -69.5t-68.5 -123.5t-25.5 -176.5q0 -106 32.5 -213.5t88.5 -195.5t141 -143t182 -55q65 0 121 29t90 72t54 84t24 74l15 -5q-79 -294 -385 -294z" />
    <glyph glyph-name="n_o_p" unicode="nop" horiz-adv-x="3418" 
d="M1010 801q0 -78 -19.5 -154t-48 -139.5t-56.5 -127.5t-47.5 -142.5t-19.5 -159.5q0 -116 41.5 -214.5t113 -168t167 -118t204 -72t224.5 -23.5q124 0 243 26.5t225 81.5t186.5 132.5t127.5 187t47 237.5v748q0 53 -30.5 79t-81.5 17h-5v15l269 41v-277q34 129 115 203
t212 74q110 0 199 -46t144.5 -122.5t85.5 -171.5t30 -197q0 -80 -18 -155.5t-55.5 -142.5t-91 -117t-129.5 -79.5t-165 -29.5q-118 0 -180.5 66.5t-62.5 162.5q0 116 84 197l10 -11q-78 -84 -78 -184q0 -91 64.5 -154t177.5 -63q74 0 132 36t93 98.5t53.5 140.5t18.5 167
q0 103 -25 203t-70 182t-116.5 132.5t-157.5 50.5q-69 0 -123 -42.5t-85 -112t-46.5 -149t-15.5 -163.5v-396q-5 -141 -57.5 -257.5t-138 -195.5t-199.5 -133.5t-240 -79t-262 -24.5q-121 0 -241.5 20t-229.5 56.5t-203 92t-163 123t-108.5 152.5t-39.5 177q0 99 20 185.5
t49 150t58 123.5t49 132.5t20 151.5q0 89 -71.5 145t-171.5 56q-73 0 -143.5 -32t-123.5 -97v-764q0 -53 31 -84t84 -31h35v-14h-453v14h37q52 0 83.5 31t31.5 84v766q0 52 -31 78.5t-82 17.5h-4v15l268 41v-134q56 67 140.5 100.5t177.5 33.5q138 0 238 -67t100 -179z
M1679 -31q-98 0 -181 30.5t-141.5 82t-100 121t-61 146.5t-19.5 159t19.5 159.5t61 146.5t100 121t141.5 82t181 30q122 0 220 -46t159 -122.5t93 -172t32 -198.5q0 -81 -20 -158.5t-61 -147t-100 -121t-142 -82t-181 -30.5zM1610 1018q-80 0 -141 -30t-97.5 -83t-55 -120.5
t-18.5 -147.5q0 -109 33.5 -222t91.5 -206t144 -152t182 -59q105 0 177 53t103 136t31 190q0 110 -33.5 223t-91 206.5t-143.5 152.5t-182 59z" />
    <glyph glyph-name="n_s" unicode="ns" horiz-adv-x="2144" 
d="M354 129q0 -53 31 -84t84 -31h35v-14h-453v14h37q52 0 83.5 31t31.5 84v766q0 52 -31 78.5t-82 17.5h-4v15l268 41v-136q57 67 141 101.5t177 34.5q138 0 238 -67t100 -179q0 -60 -27 -135t-59 -135t-59 -136t-27 -137q0 -95 45.5 -168.5t122.5 -117.5t171.5 -66.5
t200.5 -22.5q149 0 284 40t223.5 119.5t88.5 180.5q0 51 -38.5 90t-100.5 65t-137 49t-150 50t-137 61.5t-100.5 90t-38.5 127.5t30.5 128t82.5 89t115 50t134 17q99 0 186 -29.5t144 -89t57 -137.5q0 -43 -29.5 -67.5t-68.5 -24.5q-37 0 -58 24.5t-5 67.5q16 53 16 88
q0 55 -34.5 90.5t-86.5 49.5t-121 14q-74 0 -135 -20t-102 -68t-41 -117q0 -55 39 -96.5t101 -68.5t137.5 -50.5t151 -50.5t137.5 -60t101 -86.5t39 -123.5q0 -78 -43 -146.5t-116 -118.5t-168.5 -86.5t-203 -54.5t-216.5 -18q-98 0 -188.5 14.5t-171 46.5t-139.5 77.5
t-93.5 112t-34.5 146.5q0 55 27.5 132.5t60.5 143t60.5 146t27.5 141.5q0 89 -71.5 145t-171.5 56q-73 0 -143.5 -32t-123.5 -97v-764z" />
    <glyph glyph-name="t_i_t" unicode="tit" horiz-adv-x="1996" 
d="M1624 1350q0 106 -55.5 191.5t-148 139t-207.5 81.5t-240 28t-239.5 -28t-207.5 -81t-148.5 -138.5t-55.5 -192.5q0 -133 84.5 -228t230.5 -98v-14h-309v-822q0 -85 31.5 -129.5t84.5 -44.5q59 0 124 57.5t112 161.5l12 -8q-61 -128 -146 -192t-169 -64q-85 0 -143 59
t-58 154v828h-143v14h489q-136 33 -212.5 126.5t-76.5 211.5q0 108 63 195t169 140.5t236.5 82t271.5 28.5t271 -28.5t235 -82t168 -140.5t63 -195q0 -118 -76.5 -211.5t-210.5 -126.5h490v-14h-309v-822q0 -85 31.5 -129.5t84.5 -44.5q59 0 124 57.5t112 161.5l12 -8
q-61 -128 -146 -192t-169 -64q-85 0 -143 59t-58 154v828h-143v14q146 3 230.5 98t84.5 228zM918 1139q59 30 59 57q0 14 -29.5 48.5t-29.5 62.5q0 32 26 51.5t62 19.5q32 0 55.5 -21t23.5 -61q0 -26 -9 -48t-30 -41t-35 -29t-46 -28.5t-41 -23.5zM1075 129q0 -53 31.5 -84
t83.5 -31h35v-14h-453v14h37q53 0 84 31t31 84v766q0 52 -31 78.5t-82 17.5h-4v15l268 41v-918z" />
    <glyph glyph-name="a_g" unicode="ag" horiz-adv-x="2228" 
d="M1669 365q-111 0 -200.5 29t-145 77.5t-84.5 109t-29 126.5q0 65 29 125t84.5 108.5t145 77.5t200.5 29q168 0 287 -68q60 54 88.5 93.5t28.5 74.5q0 46 -52 98q-18 18 -18 37q0 24 25 41.5t57 17.5q29 0 48 -19.5t19 -59.5q0 -73 -40.5 -133.5t-143.5 -155.5
q77 -48 117.5 -118.5t40.5 -147.5q0 -120 -90.5 -214.5t-257.5 -119.5q36 -38 100.5 -92.5t115.5 -99t102 -98.5t79.5 -115.5t28.5 -125.5q0 -75 -38 -143.5t-107.5 -121.5t-177.5 -84.5t-239 -31.5q-196 0 -318.5 65t-168.5 169q-210 52 -296 207t-89 424v24q0 3 0.5 8.5
t0 8.5t-1 7t-3 5.5t-6.5 1.5q-11 0 -25 -30.5t-29 -76.5t-47 -99t-74 -99t-115 -76.5t-165 -30.5q-103 0 -168 61t-65 175q0 68 40 118t104 79.5t141.5 54t155.5 50t142 57.5t104 87.5t40 130.5q0 82 -47 138.5t-113.5 80t-144.5 23.5q-30 0 -56.5 -3.5t-55.5 -13t-49 -25.5
t-37 -41t-19.5 -60t2.5 -82q2 -8 2 -21q0 -36 -20 -56t-50 -20q-34 0 -59 26.5t-25 74.5q0 74 61.5 129t153.5 81.5t197 26.5q98 0 179 -23.5t135 -77.5t54 -130q0 -67 -37.5 -120t-98 -88t-133.5 -66t-146 -61.5t-133.5 -65t-98 -87t-37.5 -118.5q0 -75 47 -116.5
t121 -41.5q55 0 97.5 12.5t86.5 45t80.5 97.5t65.5 162q12 45 43 72t70 27h2q38 0 62 -28.5t24 -74.5q1 -72 2 -116t6 -106.5t13.5 -103t24 -89.5t38 -82.5t56.5 -65t77 -53.5q-9 37 -9 74q0 66 28 129t78 113t126.5 80t165.5 30q123 0 197.5 -71t74.5 -167
q0 -107 -100 -184.5t-293 -77.5q-47 0 -125 4q41 -89 131 -142.5t229 -53.5q105 0 188.5 29.5t133.5 78t76 106t26 117.5q0 67 -21 131.5t-60 124t-76 105.5t-88 105.5t-78 95.5q-46 -4 -74 -4zM1608 1018q-137 0 -205 -65.5t-68 -168.5q0 -90 48.5 -178.5t140.5 -150
t202 -62.5q-65 92 -65 170q0 81 76 166l104 117l12 -6l-90 -103q-82 -88 -82 -174q0 -84 76 -170q122 7 183 71.5t61 160.5q0 67 -29 136.5t-79.5 126.5t-125.5 93.5t-159 36.5zM1270 -299q66 -14 164 -14q172 0 261 71t89 170q0 91 -70 158.5t-186 67.5q-125 0 -203 -98
t-78 -228q0 -63 23 -127z" />
    <glyph glyph-name=".notdef" horiz-adv-x="1024" 
 />
    <glyph glyph-name="uni0000" horiz-adv-x="0" 
 />
    <glyph glyph-name="uni0000" horiz-adv-x="0" 
 />
    <glyph glyph-name="uni000D" unicode="&#xd;" horiz-adv-x="512" 
 />
    <glyph glyph-name="space" unicode=" " horiz-adv-x="522" 
 />
    <glyph glyph-name="exclam" unicode="!" horiz-adv-x="411" 
d="M199 274l-88 1160h190l-88 -1160h-14zM117 74q0 42 27 66t63 24q35 0 61.5 -24t26.5 -66q0 -43 -27 -67.5t-63 -24.5q-35 0 -61.5 24.5t-26.5 67.5z" />
    <glyph glyph-name="quotedbl" unicode="&#x22;" horiz-adv-x="438" 
d="M123 1069l-60 301q-7 39 10.5 63.5t53.5 24.5t54.5 -24.5t11.5 -63.5l-60 -301h-10zM322 1069l-60 301q-7 39 10.5 63.5t53.5 24.5t54 -24.5t11 -63.5l-59 -301h-10z" />
    <glyph glyph-name="numbersign" unicode="#" horiz-adv-x="1267" 
d="M207 0l115 412h-273v16h279l133 490h-291v16h295l106 391h17l-107 -391h502l109 391h18l-109 -391h224v-16h-230l-133 -490h238v-16h-242l-113 -412h-16l113 412h-502l-115 -412h-18zM344 428h502l133 490h-502z" />
    <glyph glyph-name="dollar" unicode="$" horiz-adv-x="1110" 
d="M541 1466h14v-127q105 -4 196.5 -37.5t150.5 -95t59 -137.5q0 -52 -32.5 -79t-76.5 -27q-41 0 -71.5 23.5t-30.5 62.5q0 28 31.5 72.5t31.5 58.5q0 58 -72.5 98t-185.5 45v-586q189 -74 264 -117q175 -102 200 -249q5 -27 5 -56q0 -163 -117 -258.5t-311 -95.5
q-29 0 -41 2v-78h-14v78q-68 7 -127 30.5t-97 52t-68.5 56t-55 46t-41.5 18.5q-30 0 -49 -54.5t-21 -99.5h-12l63 449l10 2q0 -120 33.5 -213t91 -149t126.5 -85.5t147 -33.5v602q-57 22 -93 36.5t-87.5 39t-83.5 46t-69 53t-57.5 64.5t-34.5 76t-14 92q0 89 36 158.5
t96.5 110t134 61t155.5 20.5q3 0 9 -1t8 -1v127zM541 743v582q-70 0 -130.5 -13t-115.5 -42t-87 -83t-32 -128q0 -35 11 -66t27.5 -56t46 -49t56.5 -41.5t69 -37.5t74.5 -33.5t80.5 -32.5zM555 578v-598q98 -2 185 32t142.5 100.5t55.5 149.5q0 28 -7.5 53.5t-17.5 46
t-31.5 41.5t-37.5 35.5t-49 33t-52.5 28.5t-60.5 27.5t-61 25t-66 25.5z" />
    <glyph glyph-name="percent" unicode="%" horiz-adv-x="1132" 
d="M338 920q-109 0 -182.5 76t-73.5 206t74 205.5t182 75.5t183 -76t75 -207q0 -130 -75 -205t-183 -75zM365 930q48 0 80.5 34t45.5 82t13 107q0 72 -20 143t-65.5 124t-107.5 53q-70 0 -103.5 -66t-33.5 -156q0 -51 12 -105.5t34 -103.5t60 -80.5t85 -31.5zM133 0
l871 1432h18l-872 -1432h-17zM793 -33q-108 0 -182 77t-74 206q0 130 74 206t182 76t183 -76.5t75 -207.5q0 -130 -75 -205.5t-183 -75.5zM821 -23q47 0 80 34.5t46.5 82.5t13.5 105q0 72 -20.5 143t-66.5 124.5t-108 53.5q-48 0 -80 -34.5t-44.5 -81.5t-12.5 -103
q0 -71 20 -143t66 -126.5t106 -54.5z" />
    <glyph glyph-name="ampersand" unicode="&#x26;" horiz-adv-x="1443" 
d="M1141 512q0 37 -31 68q-67 73 -45 112q20 41 68 41q29 0 48 -24t19 -74q0 -152 -98 -322q56 -73 89.5 -137t48.5 -132t-3 -133.5t-70 -125.5l-14 4q29 77 -10 176t-133 225q-93 -101 -213.5 -160t-257.5 -59q-116 0 -207.5 36.5t-145 97t-81 132t-27.5 148.5
q0 130 71.5 222.5t190.5 92.5q66 0 125.5 -31.5t91.5 -86.5l-10 -11q-55 52 -111 52q-97 0 -153 -83t-56 -198q0 -64 19.5 -124.5t57 -111.5t99 -81.5t138.5 -30.5q136 0 254.5 57.5t203.5 151.5q-51 68 -131.5 163t-147.5 171t-140.5 169t-123.5 170.5t-83 160.5t-33 153
q0 82 44 143.5t109 90t138 28.5q104 0 178 -58.5t74 -164.5q0 -194 -291 -332q74 -101 252.5 -291.5t245.5 -275.5q48 88 51 182zM584 909q77 55 122.5 146.5t45.5 183.5q0 97 -40.5 147t-97.5 50q-64 0 -114.5 -55t-50.5 -142q0 -143 135 -330z" />
    <glyph glyph-name="quotesingle" unicode="'" horiz-adv-x="256" 
d="M123 1069l-60 301q-7 39 10.5 63.5t53.5 24.5t54.5 -24.5t11.5 -63.5l-60 -301h-10z" />
    <glyph glyph-name="parenleft" unicode="(" horiz-adv-x="557" 
d="M469 -66q-186 105 -291.5 311.5t-105.5 444.5q0 237 104.5 443t290.5 311l6 -8q-80 -69 -137 -189.5t-84 -260.5t-27 -296t26.5 -296t83.5 -260.5t138 -188.5z" />
    <glyph glyph-name="parenright" unicode=")" horiz-adv-x="557" 
d="M88 -66l-4 11q81 68 138 188.5t83.5 260.5t26.5 296t-27 296t-84 260.5t-137 189.5l6 8q186 -105 290.5 -311t104.5 -443q0 -238 -105.5 -444.5t-291.5 -311.5z" />
    <glyph glyph-name="asterisk" unicode="*" horiz-adv-x="493" 
d="M119 1153l104 100l-141 11l18 73l125 -73l-32 125h69l-33 -125l127 75l23 -71l-148 -15l109 -102l-53 -47l-60 145l-55 -141z" />
    <glyph glyph-name="plus" unicode="+" horiz-adv-x="835" 
d="M412 193v366h-363v14h363v365h16v-365h363v-14h-363v-366h-16z" />
    <glyph glyph-name="comma" unicode="," horiz-adv-x="356" 
d="M72 74q0 42 27 66t63 24q35 0 61.5 -24t26.5 -66q0 -70 -63 -132.5t-134 -78.5l-4 8q37 12 72.5 41.5t54.5 71.5q-6 -2 -16 -2q-35 0 -61.5 24.5t-26.5 67.5z" />
    <glyph glyph-name="hyphen" unicode="-" horiz-adv-x="731" 
d="M51 596v14h633v-14h-633z" />
    <glyph glyph-name="period" unicode="." horiz-adv-x="321" 
d="M72 74q0 42 27 66t63 24q35 0 61.5 -24t26.5 -66q0 -43 -27 -67.5t-63 -24.5q-35 0 -61.5 24.5t-26.5 67.5z" />
    <glyph glyph-name="slash" unicode="/" horiz-adv-x="845" 
d="M68 0h-15l719 1432h16z" />
    <glyph glyph-name="zero" unicode="0" horiz-adv-x="1316" 
d="M76 717q0 222 72.5 392t205 262.5t305.5 92.5q264 0 424 -205t160 -542q0 -222 -72 -392t-205 -263t-307 -93q-262 0 -422.5 205.5t-160.5 542.5zM229 717q0 -142 24 -262.5t65.5 -205.5t96.5 -145.5t117 -89t127 -28.5t127 28.5t117.5 89t97 145.5t65.5 205.5t24 262.5
t-24 263.5t-65.5 206.5t-97 145.5t-117.5 89t-127 28.5t-127 -28.5t-117 -89t-96.5 -145.5t-65.5 -206.5t-24 -263.5z" />
    <glyph glyph-name="one" unicode="1" horiz-adv-x="581" 
d="M365 1434v-1252q0 -75 39.5 -121.5t103.5 -46.5h8v-14h-459v14h9q64 0 103.5 46.5t39.5 121.5v1094l-115 -33v10q64 20 131.5 65.5t103.5 80.5z" />
    <glyph glyph-name="two" unicode="2" horiz-adv-x="1005" 
d="M315 1151q-27 -10 -49 -10q-45 0 -76.5 28.5t-31.5 69.5q0 56 52.5 103t135.5 73.5t174 26.5q57 0 108.5 -11t99 -35.5t82.5 -61.5t56 -93t21 -125q0 -74 -17.5 -143.5t-56 -137.5t-82 -127.5t-112.5 -133.5t-129.5 -134.5t-152 -153t-161.5 -167.5h356q86 0 157 14
t111.5 34.5t63.5 39t29 33.5q1 3 3.5 3t4.5 -1l2 -2l-53 -240h-805l18 18q40 45 107 119t114.5 126t110.5 128t107.5 137.5t91.5 140.5t75.5 151t47 156.5t18.5 168.5q0 78 -19 134.5t-52.5 87t-71 44.5t-82.5 14q-78 0 -148 -36q-26 -14 -32.5 -50t12.5 -73q18 -35 9.5 -69
t-36.5 -46z" />
    <glyph glyph-name="three" unicode="3" horiz-adv-x="1120" 
d="M256 168l-10 -31q-18 -53 58.5 -92t187.5 -39q57 0 111 11.5t107 39t92 69t63 107t24 146.5q0 78 -26 150.5t-75 132t-129.5 95t-181.5 34.5v14q78 -5 141.5 23.5t101.5 78.5t58.5 111t20.5 125q0 78 -24.5 136t-66 89.5t-88.5 46.5t-100 15q-96 0 -168 -44
q-21 -14 -29 -47.5t1 -74.5q6 -37 -6.5 -68.5t-36.5 -38.5q-21 -6 -43 -6q-38 0 -65.5 21.5t-27.5 60.5q0 62 55 111t140.5 74.5t183.5 25.5q81 0 154 -19.5t134 -58.5t97.5 -106t36.5 -154q0 -111 -88 -191t-223 -118q173 -40 290 -149t117 -255q0 -84 -30.5 -153.5
t-81 -115.5t-119.5 -77t-143 -45t-154 -14q-117 0 -221 29t-170 83.5t-66 122.5q0 50 33 78.5t78 28.5q30 0 61 -17q28 -15 36 -57t-9 -88z" />
    <glyph glyph-name="four" unicode="4" horiz-adv-x="1073" 
d="M707 528h-666v15l803 891h18v-891h139v-15h-139v-346q0 -75 40 -121.5t104 -46.5h6v-14h-457v14h8q64 0 104 46.5t40 121.5v346zM707 1260l-646 -717h646v717z" />
    <glyph glyph-name="five" unicode="5" horiz-adv-x="1052" 
d="M238 170l-7 -10q-22 -39 0 -75.5t71.5 -57.5t107.5 -21q87 0 166 37t134 97t87 136.5t32 155.5q0 77 -20.5 147t-60 126.5t-104.5 90t-148 33.5q-52 0 -104 -11.5t-90 -28t-68.5 -33t-45.5 -28.5l-16 -11h-27l54 717h632l33 -238q-14 2 -16 6q-5 15 -10.5 25.5t-25 28
t-47 29t-78.5 20t-118 8.5h-362l-33 -580q172 121 383 121q86 0 161 -24.5t135 -73t95 -130t35 -186.5q0 -106 -42 -191.5t-115.5 -141t-171.5 -85.5t-212 -30q-96 0 -168 21t-110 56.5t-56 74t-18 79.5q0 48 28 75.5t66 27.5q24 0 47 -13q27 -14 29 -56.5t-22 -86.5z" />
    <glyph glyph-name="six" unicode="6" horiz-adv-x="1159" 
d="M848 1446l-2 -12q-108 0 -202.5 -46.5t-163.5 -125t-121 -181.5t-80.5 -216.5t-36.5 -229.5q44 120 132 199t212 79q121 0 218.5 -39t158 -105t92.5 -148.5t32 -174.5q0 -91 -32 -171t-92.5 -143t-158 -99.5t-218.5 -36.5q-126 0 -223 44.5t-157.5 122.5t-91 180.5
t-30.5 223.5q0 124 31.5 249t94 238t148.5 200.5t203.5 139.5t249.5 52h37zM586 12q84 0 152.5 38t110.5 100.5t64.5 142t23 162t-22 162t-64.5 142t-110.5 100.5t-153.5 38q-99 0 -177.5 -67t-120 -171.5t-42.5 -222.5q15 -123 55.5 -216t114 -150.5t170.5 -57.5z" />
    <glyph glyph-name="seven" unicode="7" horiz-adv-x="1042" 
d="M989 1434l4 -13l-583 -1421h-179l695 1313h-512q-67 0 -118 -8.5t-78.5 -20t-47 -29t-25 -28t-10.5 -25.5l-16 -6l33 238h837z" />
    <glyph glyph-name="eight" unicode="8" horiz-adv-x="1236" 
d="M160 1118q0 149 125.5 239.5t332.5 90.5t333 -90.5t126 -239.5q0 -131 -100 -215.5t-272 -103.5q210 -20 334 -130.5t124 -279.5q0 -189 -149.5 -304.5t-395.5 -115.5t-395 115.5t-149 304.5q0 169 124 279.5t334 130.5q-172 19 -272 103.5t-100 215.5zM618 803
q74 0 135 27t98.5 71.5t58 101t21 116t-19.5 116t-57.5 101t-98.5 71.5t-137 27q-77 0 -138.5 -27t-99 -71.5t-58 -101t-20 -116t21.5 -116t58.5 -101t99 -71.5t136.5 -27zM618 -14q94 0 170 34.5t122.5 91.5t72 129.5t26 148t-25 148t-72 129.5t-123 91.5t-170.5 34.5
q-84 0 -155 -27.5t-116.5 -74.5t-77 -107.5t-38.5 -127.5t0.5 -133.5t39 -127t77 -107.5t116 -74.5t154.5 -27.5z" />
    <glyph glyph-name="nine" unicode="9" horiz-adv-x="1159" 
d="M297 -4l2 12q108 0 202.5 46.5t163.5 125t121 181.5t80.5 216.5t36.5 229.5q-43 -118 -131.5 -198.5t-212.5 -80.5q-121 0 -218.5 39t-158.5 105t-93 148.5t-32 174.5q0 91 32 171.5t93 143t158.5 99.5t218.5 37q125 0 222.5 -44.5t158 -123t91 -181t30.5 -223.5
q0 -124 -31.5 -248.5t-94 -237.5t-148.5 -200.5t-203.5 -139.5t-249.5 -52h-37zM559 1430q-84 0 -152.5 -38t-110.5 -100.5t-64.5 -142t-23 -162t22 -162t64.5 -142t110.5 -100.5t153.5 -38q99 0 177.5 67t120 171.5t42.5 222.5q-21 189 -108.5 306.5t-231.5 117.5z" />
    <glyph glyph-name="colon" unicode=":" horiz-adv-x="321" 
d="M72 829q0 42 27 66.5t63 24.5q35 0 61.5 -24.5t26.5 -66.5q0 -43 -27 -67.5t-63 -24.5q-35 0 -61.5 24.5t-26.5 67.5zM72 170q0 42 27 66t63 24q35 0 61.5 -24t26.5 -66q0 -43 -27 -67.5t-63 -24.5q-35 0 -61.5 24.5t-26.5 67.5z" />
    <glyph glyph-name="semicolon" unicode=";" horiz-adv-x="331" 
d="M72 707q0 42 27 66t63 24q35 0 61.5 -24t26.5 -66q0 -43 -27 -68t-63 -25q-35 0 -61.5 25t-26.5 68zM72 74q0 42 27 66t63 24q35 0 61.5 -24t26.5 -66q0 -70 -63 -132.5t-134 -78.5l-4 8q37 12 72.5 41.5t54.5 71.5q-6 -2 -16 -2q-35 0 -61.5 24.5t-26.5 67.5z" />
    <glyph glyph-name="less" unicode="&#x3c;" horiz-adv-x="544" 
d="M500 287l-453 329v23l453 332v-78l-447 -264l447 -262v-80z" />
    <glyph glyph-name="equal" unicode="=" horiz-adv-x="835" 
d="M41 743v15h754v-15h-754zM41 496v14h754v-14h-754z" />
    <glyph glyph-name="greater" unicode="&#x3e;" horiz-adv-x="544" 
d="M500 616l-453 -329v80l447 262l-447 264v78l453 -332v-23z" />
    <glyph glyph-name="question" unicode="?" horiz-adv-x="911" 
d="M236 1108q-28 -8 -46 -8q-32 0 -52.5 20t-20.5 60t22.5 83.5t66 84t118.5 66.5t168 26q90 0 163 -32t119.5 -101.5t46.5 -167.5q0 -78 -25.5 -142t-66.5 -109.5t-90 -87.5t-98.5 -87t-90.5 -97t-66.5 -129t-25.5 -172h-12q0 100 19 187t49.5 149t67 118t73 105t67 97.5
t49.5 108.5t19 126q0 113 -61.5 166t-155.5 53q-111 0 -197 -59q-28 -19 -31 -59t21 -80q21 -37 12 -73t-42 -46zM246 74q0 42 27 66t63 24q35 0 61.5 -24t26.5 -66q0 -43 -27 -67.5t-63 -24.5q-35 0 -61.5 24.5t-26.5 67.5z" />
    <glyph glyph-name="at" unicode="@" horiz-adv-x="1327" 
d="M797 946h88v-194q0 -20 -1 -59t-2 -66.5t0.5 -66t6 -65.5t14 -56t24 -47t37.5 -30t54 -12q76 0 123 105q54 122 37 294q-21 213 -141 348q-135 154 -363 154q-127 0 -230.5 -55.5t-167 -145.5t-97.5 -205.5t-34 -236.5t34 -236.5t97.5 -205.5t167 -145.5t230.5 -55.5
q146 0 266.5 82t165.5 232l43 -76q-171 -252 -475 -252q-145 0 -262.5 56.5t-190 149t-111.5 210.5t-39 241.5t39 241.5t111.5 210.5t190 149t262.5 56.5q270 0 432 -186q121 -139 145 -333q22 -173 -44 -292t-189 -119q-60 0 -102 21.5t-65.5 61t-34.5 82.5t-15 99
q-4 -48 -10.5 -86.5t-21 -80.5t-35 -70t-54 -46t-76.5 -18q-92 0 -152 69t-70 167t9 196t83.5 167t154.5 69q138 0 168 -158v137zM797 700v56q-4 76 -52 123t-116 47q-42 0 -74.5 -32.5t-49 -84t-24 -114t-0.5 -125t21.5 -114t42 -84t61.5 -32.5q45 0 80 25.5t54.5 63
t32.5 89t18 94t6 88.5z" />
    <glyph glyph-name="A" unicode="A" horiz-adv-x="1646" 
d="M1192 166l-170 385q-88 31 -180 31q-194 0 -355 -112t-258 -292q-14 -32 -14 -65q0 -44 30 -71.5t83 -27.5v-14h-312v14q50 0 111 55.5t88 114.5l490 1090l-70 160h164l565 -1280q29 -63 83 -101.5t114 -38.5h2v-14h-457v14h8q45 0 69.5 21.5t24.5 58.5q0 29 -16 72z
M1014 569l-301 686l-441 -976q104 145 252.5 231t317.5 86q90 0 172 -27z" />
    <glyph glyph-name="B" unicode="B" horiz-adv-x="1247" 
d="M55 14h2q67 0 108.5 41t41.5 109v1108q0 66 -41 106.5t-107 40.5h-4v15h459q234 0 365 -95.5t131 -226.5q0 -105 -87.5 -190.5t-248.5 -116.5h28q107 -1 193 -34t139.5 -87.5t82 -122t28.5 -141.5q0 -79 -32.5 -153t-93 -134.5t-159.5 -96.5t-221 -36h-584v14zM362 1419
v-614h166q157 0 246.5 92.5t89.5 218.5q0 124 -88.5 213.5t-247.5 89.5h-166zM362 791v-777h287q80 0 146 36t106.5 95t62 131.5t21.5 149.5q0 96 -30.5 177t-96.5 134.5t-156 53.5h-340z" />
    <glyph glyph-name="C" unicode="C" horiz-adv-x="1380" 
d="M926 16q140 0 248.5 70.5t171.5 181.5l8 -8q-31 -50 -62.5 -89.5t-78 -79t-99.5 -65t-125.5 -41.5t-157.5 -16q-146 0 -270 42t-211.5 114t-149.5 167.5t-92 203.5t-30 221q0 165 58 306t155 234t221.5 145t259.5 52q48 0 96.5 -6.5t99 -20t94 -37t78 -54t54.5 -75
t20 -96.5q0 -67 -33 -103t-77 -36q-36 0 -63 24.5t-27 65.5q0 30 10.5 52t25 33.5t29 20.5t25 19.5t10.5 24.5q0 18 -16 45q-52 65 -146.5 94t-187.5 29q-108 0 -197.5 -33t-152.5 -90t-106.5 -135t-64 -167t-20.5 -186q0 -116 29 -231t88.5 -218.5t142 -183.5t197 -127
t246.5 -47z" />
    <glyph glyph-name="D" unicode="D" horiz-adv-x="1413" 
d="M55 14h27q57 0 91 41t34 107v1110q0 66 -34 106.5t-91 40.5h-27v15h539q153 -1 289 -56.5t234 -150t155 -227.5t57 -283q0 -201 -97 -365.5t-265.5 -258t-372.5 -93.5h-539v14zM362 1419v-1405h222q164 0 299.5 101t209.5 261.5t74 340.5q0 107 -28 211t-80.5 192
t-123 155.5t-161.5 105.5t-190 38h-222z" />
    <glyph glyph-name="E" unicode="E" horiz-adv-x="1239" 
d="M55 14h4q66 0 107 41t41 107v1110q0 66 -41 106.5t-107 40.5h-4v15h961l67 -287q-14 0 -16 6q-28 78 -51 116q-89 150 -238 150h-416v-696h377q41 0 74.5 13t53 31t35.5 44.5t22 45t12.5 41.5t7.5 26t4 4.5t6 1.5h2q-12 -132 -12 -217t12 -244q-10 0 -12 8q-1 4 -2 11
q-6 32 -10.5 52t-19 56t-34.5 57.5t-56 38.5t-83 17h-377v-695h510q199 0 286 259q2 6 3 8q2 6 17 6l-70 -287h-1053v14z" />
    <glyph glyph-name="F" unicode="F" horiz-adv-x="1144" 
d="M362 608v-446q0 -66 41 -107t107 -41h4v-14h-459v14h4q66 0 107 41t41 107v1110q0 66 -41 106.5t-107 40.5h-4v15h961l67 -287q-14 0 -16 6q-28 78 -51 116q-89 150 -238 150h-416v-796h377q41 0 74.5 13t53 31t35.5 44.5t22 44.5t12.5 41t7.5 26t4 4.5t6 1.5h2
q-12 -132 -12 -217q0 -84 12 -243q-10 0 -12 8q-1 3 -2 11q-5 32 -10 52t-19.5 55.5t-34.5 57t-56 38.5t-83 17h-377z" />
    <glyph glyph-name="G" unicode="G" horiz-adv-x="1445" 
d="M1040 711h-41v14h412v-14h-10q-47 0 -76 -29t-31 -76l-6 -633h-8q0 43 -26 90.5t-62 47.5q-19 0 -39 -17q-48 -61 -122 -93t-195 -32q-146 0 -270 42t-212 114t-150 167.5t-92 203.5t-30 221q0 165 58 306t155 234t221.5 145t259.5 52q58 0 116 -9t117.5 -30.5t105 -53.5
t74 -83t28.5 -113q0 -67 -32.5 -103t-76.5 -36q-36 0 -63 24.5t-27 65.5q0 30 10.5 52t25 33.5t29 20.5t25 19.5t10.5 24.5q0 19 -16 43q-52 66 -146 95.5t-188 29.5q-108 0 -197.5 -33t-152.5 -90t-106.5 -135t-64 -167t-20.5 -186q0 -116 29 -231t88.5 -218.5t142 -183.5
t197 -127t246.5 -47q134 0 215 88v502q0 47 -29 76t-76 29z" />
    <glyph glyph-name="H" unicode="H" horiz-adv-x="1538" 
d="M508 1419q-65 0 -105.5 -39.5t-40.5 -105.5v-692q189 213 523 213q176 0 293 -82v561q0 66 -40 105.5t-106 39.5h-6v15h457v-15h-4q-65 0 -105.5 -39.5t-40.5 -105.5v-1114q0 -64 40.5 -105t105.5 -41h4v-14h-457v14h6q66 0 106 40.5t40 105.5v534q-116 86 -293 86
q-338 0 -523 -221v-399q0 -64 41 -105t105 -41h4v-14h-457v14h6q66 0 106 40.5t40 105.5v1114q0 66 -40 105.5t-106 39.5h-6v15h457v-15h-4z" />
    <glyph glyph-name="I" unicode="I" horiz-adv-x="571" 
d="M516 1419h-8q-64 0 -103.5 -46.5t-39.5 -121.5v-1069q0 -75 39.5 -121.5t103.5 -46.5h8v-14h-459v14h9q64 0 103.5 46.5t39.5 121.5v1069q0 75 -39.5 121.5t-103.5 46.5h-9v15h459v-15z" />
    <glyph glyph-name="J" unicode="J" horiz-adv-x="999" 
d="M958 1419q-69 0 -110 -40.5t-41 -108.5v-776q-3 -271 -125.5 -397t-339.5 -126q-70 0 -137.5 35t-106.5 105q-24 39 -24 71q0 67 32 103.5t76 36.5q37 0 63.5 -25t26.5 -66q0 -36 -15.5 -62t-33.5 -38t-33.5 -26.5t-15.5 -30.5q0 -17 19 -45q49 -33 143 -33
q157 0 236 134.5t79 375.5v764q0 68 -41 108.5t-110 40.5v15h458v-15z" />
    <glyph glyph-name="K" unicode="K" horiz-adv-x="1378" 
d="M514 1419h-4q-66 0 -107 -40.5t-41 -106.5v-498l416 438q74 77 74 144q0 63 -80 63h-22v15h458v-15h-14q-86 0 -208 -68t-189 -141l-379 -403q79 24 145 24q74 0 138.5 -27.5t112.5 -73.5t90 -106t74 -126t60.5 -132t54 -126t49.5 -106t51 -73.5t56 -27.5q66 0 123 82
l8 -6q-36 -58 -88 -89.5t-108 -31.5q-60 0 -109 35t-82 92t-66 129.5t-60.5 149t-65 149t-79.5 129.5t-105 92t-140 35q-34 0 -74 -6l-41 -45v-586q0 -66 41 -107t107 -41h4v-14h-459v14h4q66 0 107 41t41 107v1110q0 66 -41 106.5t-107 40.5h-4v15h459v-15z" />
    <glyph glyph-name="L" unicode="L" horiz-adv-x="1161" 
d="M510 1419q-66 0 -107 -40.5t-41 -106.5v-1258h463q199 0 286 259q2 6 3 8q2 6 16 6l-69 -287h-1006v14h4q66 0 107 41t41 107v1110q0 66 -41 106.5t-107 40.5h-4v15h459v-15h-4z" />
    <glyph glyph-name="M" unicode="M" horiz-adv-x="1687" 
d="M1632 1419q-69 0 -110 -40.5t-41 -108.5v-1104q0 -69 41 -110.5t110 -41.5v-14h-458v14h2q68 0 108.5 41.5t40.5 110.5v1227l-448 -1096l145 -299l-170 2l-635 1286v-1120q0 -69 41.5 -110.5t110.5 -41.5v-14h-318v14h2q68 0 109 41.5t41 110.5v1104q0 68 -41.5 108.5
t-110.5 40.5v15h271l546 -1119l457 1119h307v-15z" />
    <glyph glyph-name="N" unicode="N" horiz-adv-x="1458" 
d="M217 1235v-1042q0 -79 42 -129t110 -50v-14h-316v14q68 0 110 50t42 129v1048q0 79 -42 128.5t-110 49.5v15h201l997 -1258v1065q0 80 -41 129t-110 49v15h317v-15q-67 0 -109 -49t-42 -129v-1081l127 -160h-207z" />
    <glyph glyph-name="O" unicode="O" horiz-adv-x="1679" 
d="M840 1464q146 0 270.5 -41.5t212 -113.5t149.5 -167.5t91.5 -203t29.5 -221.5q0 -113 -29.5 -221t-91.5 -203.5t-149.5 -167.5t-212 -114t-270.5 -42t-270.5 42t-212.5 114t-150 167.5t-91.5 203.5t-29.5 221q0 114 29.5 221.5t91.5 203t150 167.5t212.5 113.5
t270.5 41.5zM920 0q133 0 237.5 50.5t168 136.5t96 194t32.5 231q0 118 -29 235t-87.5 222.5t-139.5 187t-194 129.5t-242 48q-134 0 -239 -50.5t-168.5 -137t-96.5 -194.5t-33 -231q0 -118 29 -235t88 -222.5t141 -186.5t195 -129t242 -48z" />
    <glyph glyph-name="P" unicode="P" horiz-adv-x="1128" 
d="M362 612v-448q0 -68 41 -109t109 -41h2v-14h-459v14h2q67 0 108.5 41t41.5 109v1106q0 67 -41 108t-109 41h-2v15h459q123 0 222.5 -35t161.5 -93.5t95 -131t33 -150.5t-33 -151t-95 -131.5t-161.5 -94t-222.5 -35.5h-152zM362 1419v-792h166q109 1 189 60.5t117.5 148.5
t37.5 192q0 75 -22 144t-63 125t-108 89t-151 33h-166z" />
    <glyph glyph-name="Q" unicode="Q" horiz-adv-x="1679" 
d="M840 1464q146 0 270.5 -41.5t212 -113.5t149.5 -167.5t91.5 -203t29.5 -221.5q0 -201 -92.5 -377t-265.5 -274q-5 -54 -34.5 -148.5t-29.5 -185.5q0 -81 32 -124.5t83 -43.5q60 0 125 58t113 163l12 -8q-61 -129 -145.5 -192.5t-169.5 -63.5q-86 0 -143.5 58.5
t-57.5 152.5q0 49 9 92t24 93.5t22 82.5q-109 -31 -235 -31q-146 0 -270.5 42t-212.5 114t-150 167.5t-91.5 203.5t-29.5 221q0 114 29.5 221.5t91.5 203t150 167.5t212.5 113.5t270.5 41.5zM526 139q42 112 145 170t226 58q138 0 239 -67t101 -179v-23q107 83 163 218.5
t56 295.5q0 118 -29 235t-88 222.5t-140.5 187t-195.5 129.5t-243 48q-107 0 -196 -33t-151 -90t-105 -135t-63 -167.5t-20 -187.5q0 -196 79 -381.5t222 -300.5zM920 0q81 0 159 20q13 76 13 121q0 89 -72 145t-172 56q-94 0 -180.5 -52t-137.5 -155q170 -135 390 -135z
" />
    <glyph glyph-name="R" unicode="R" horiz-adv-x="1345" 
d="M362 662v-498q0 -68 41 -109t109 -41h2v-14h-459v14h2q67 0 108.5 41t41.5 109v1106q0 67 -41 108t-109 41h-2v15h492q123 0 222.5 -33t161 -88t94 -123t32.5 -143q0 -65 -25.5 -126t-73.5 -112.5t-125 -88.5t-174 -50q91 -7 160.5 -46t110.5 -95.5t71.5 -123.5
t50.5 -132.5t39 -119t45 -87t62 -33.5q66 0 123 82l8 -6q-36 -58 -88 -89.5t-108 -31.5q-57 0 -98.5 23t-66.5 62t-44 89.5t-35 106.5t-34 112t-47.5 106.5t-69.5 89.5t-104.5 62t-148.5 23h-123zM362 1419v-743h199q109 0 189 56t117.5 140t37.5 181q0 71 -22 135.5
t-63 116.5t-108 83t-151 31h-199z" />
    <glyph glyph-name="S" unicode="S" horiz-adv-x="1218" 
d="M135 1083q0 91 39 163t104.5 115.5t146 66t169.5 22.5q124 0 231.5 -38.5t178.5 -118.5t71 -187q0 -67 -33 -103t-77 -36q-36 0 -62 25t-26 67q0 35 15.5 59.5t33.5 35t33.5 25t15.5 31.5q0 66 -57 118t-144.5 79t-185.5 27q-73 0 -138 -16.5t-118.5 -49t-85 -87.5
t-31.5 -126q0 -63 31.5 -114.5t84.5 -89t122 -70t145.5 -61.5t153 -59.5t145.5 -68.5t122 -83.5t84.5 -110t31.5 -142.5q0 -75 -28.5 -137.5t-76 -105t-112 -72.5t-136 -43.5t-147.5 -13.5q-100 0 -192 28.5t-144.5 62.5t-96 62.5t-57.5 28.5q-31 0 -51 -58.5t-22 -107.5
h-13l68 483l12 2q8 -128 52.5 -225t112.5 -152t146.5 -81.5t165.5 -26.5q109 0 205.5 37t157.5 106.5t61 155.5q0 61 -31 111.5t-83.5 86.5t-120 67.5t-142.5 60t-150.5 58t-143 67t-120 82.5t-83.5 109t-31 142z" />
    <glyph glyph-name="T" unicode="T" horiz-adv-x="1114" 
d="M635 1419v-1253q0 -69 41 -110.5t110 -41.5v-14h-458v14h2q68 0 108.5 41.5t40.5 110.5v1253h-160q-197 0 -285 -259q-2 -5 -3 -7q-2 -6 -17 -6l68 287h950l68 -287q-15 0 -17 6q-28 76 -47 110q-89 156 -241 156h-160z" />
    <glyph glyph-name="U" unicode="U" horiz-adv-x="1462" 
d="M201 504v751q0 74 -38.5 119t-101.5 45h-10v15h457v-15h-10q-63 0 -101.5 -45t-38.5 -119v-747q0 -118 35.5 -211.5t95.5 -150t134 -86t157 -29.5q88 0 172 33.5t152 96t109.5 161t41.5 217.5v710q0 76 -40 123t-105 47h-6v15h315v-15h-4q-65 0 -105 -47t-40 -123v-710
q0 -133 -49 -242.5t-129.5 -178t-180 -106t-204.5 -37.5q-78 0 -151 20.5t-137.5 63t-113 104t-76.5 149.5t-28 192z" />
    <glyph glyph-name="V" unicode="V" horiz-adv-x="1574" 
d="M373 1298l493 -1112l482 1071q16 40 16 76q0 38 -19 62t-57 24h-12v15h285v-15q-52 0 -109 -47.5t-82 -101.5l-496 -1100l76 -172h-168l-579 1300q-23 54 -74.5 87.5t-110.5 33.5h-4v15h457v-15h-18q-44 0 -68.5 -18.5t-24.5 -50.5q0 -23 13 -52z" />
    <glyph glyph-name="W" unicode="W" horiz-adv-x="2121" 
d="M375 1280l436 -1077l260 620l-221 611h170l440 -1221l445 1057q16 43 16 65q0 44 -31 64t-67 20v15h284v-15q-121 0 -184 -149l-457 -1077l72 -193l-168 -2l-291 803l-262 -617l76 -184l-168 -2l-526 1298q-22 55 -72.5 89t-110.5 34h-2v15h457v-15h-2q-50 0 -78.5 -22.5
t-28.5 -61.5q0 -23 13 -55z" />
    <glyph glyph-name="X" unicode="X" horiz-adv-x="1306" 
d="M20 1419h-6v15h457v-15h-2q-92 0 -92 -63q0 -28 20 -64l295 -497l324 485q26 42 26 78q0 28 -19.5 44.5t-57.5 16.5h-2v15h284v-15h-4q-50 0 -106.5 -35.5t-87.5 -80.5l-349 -523l383 -649q31 -52 88 -84.5t119 -32.5h2v-14h-456v14h4q84 0 84 58q0 23 -19 55l-299 512
l-319 -477q-31 -50 -31 -88q0 -60 59 -60h2v-14h-284v14h4q58 0 129 49t108 105l324 485l-379 652q-30 52 -85 83t-114 31z" />
    <glyph glyph-name="Y" unicode="Y" horiz-adv-x="1300" 
d="M606 164v510l-385 631q-30 52 -86 83t-117 31h-4v15h457v-15h-6q-88 0 -88 -57q0 -23 22 -62l361 -559l303 529q22 42 22 78q0 32 -20.5 51.5t-60.5 19.5h-3v15h285v-15h-6q-50 0 -104 -38t-82 -85l-332 -577v-555q0 -68 41 -109t108 -41h2v-14h-458v14h4
q66 0 106.5 41.5t40.5 108.5z" />
    <glyph glyph-name="Z" unicode="Z" 
d="M131 1147l68 287h911l-879 -1420h572q199 0 286 259q2 6 3 8q2 6 16 6l-70 -287h-997l885 1419h-490q-41 0 -78 -12.5t-62.5 -28.5t-50.5 -45t-38 -48t-28 -51.5t-18 -41t-11 -31.5q-2 -6 -3 -8q-2 -6 -16 -6z" />
    <glyph glyph-name="bracketleft" unicode="[" horiz-adv-x="407" 
d="M61 -119v1553h265v-15h-123v-1523h123v-15h-265z" />
    <glyph glyph-name="backslash" unicode="\" horiz-adv-x="843" 
d="M795 0h-17l-719 1432h17z" />
    <glyph glyph-name="bracketright" unicode="]" horiz-adv-x="401" 
d="M76 1434h264v-1553h-264v15h123v1523h-123v15z" />
    <glyph glyph-name="asciicircum" unicode="^" horiz-adv-x="618" 
d="M147 1030h-98l248 404h25l249 -404h-98l-164 385z" />
    <glyph glyph-name="underscore" unicode="_" horiz-adv-x="1019" 
d="M41 -12v12h936v-12h-936z" />
    <glyph glyph-name="grave" unicode="`" horiz-adv-x="301" 
d="M31 1303l57 65l188 -223l-4 -6z" />
    <glyph glyph-name="a" unicode="a" horiz-adv-x="1124" 
d="M834 461h2q38 0 62 -28.5t24 -74.5v-118q0 -211 61 -211q38 0 98 86l13 -6q-37 -60 -81.5 -90.5t-88.5 -30.5q-65 0 -109.5 55.5t-44.5 146.5v160q0 3 0.5 8.5t0 8.5t-1 7t-3 5.5t-6.5 1.5q-11 0 -25 -30.5t-29 -76.5t-47 -99t-74 -99t-115 -76.5t-165 -30.5
q-103 0 -168 61t-65 175q0 68 40 118t104 79.5t141.5 54t155.5 50t142 57.5t104 87.5t40 130.5q0 82 -47 138.5t-113.5 80t-144.5 23.5q-30 0 -56.5 -3.5t-55.5 -13t-49 -25.5t-37 -41t-19.5 -60t2.5 -82q2 -8 2 -21q0 -36 -20 -56t-50 -20q-34 0 -59 26.5t-25 74.5
q0 74 61.5 129t153.5 81.5t197 26.5q98 0 179 -23.5t135 -77.5t54 -130q0 -67 -37.5 -120t-98 -88t-133.5 -66t-146 -61.5t-133.5 -65t-98 -87t-37.5 -118.5q0 -75 47 -116.5t121 -41.5q55 0 97.5 12.5t86.5 45t80.5 97.5t65.5 162q12 45 43 72t70 27z" />
    <glyph glyph-name="b" unicode="b" horiz-adv-x="1222" 
d="M51 14h37q52 0 83.5 31t31.5 84v1251q0 52 -31 79.5t-82 21.5h-4v14l268 41v-766q36 128 117 202.5t211 74.5q110 0 199 -46t144.5 -122.5t85.5 -171.5t30 -197q0 -80 -18 -155.5t-55.5 -142.5t-91 -117t-129.5 -79.5t-165 -29.5q-117 0 -180.5 66.5t-63.5 162.5
q0 116 84 197l10 -11q-75 -81 -75 -184q0 -92 63 -154.5t176 -62.5q74 0 132 36t93 98.5t53.5 140.5t18.5 167q0 103 -24.5 203t-69.5 182t-116.5 132.5t-157.5 50.5q-69 0 -123 -42.5t-85.5 -112t-47 -149t-15.5 -163.5v-543h-303v14z" />
    <glyph glyph-name="c" unicode="c" horiz-adv-x="1026" 
d="M588 -20q-121 0 -219.5 46.5t-159 123.5t-93 172t-32.5 198q0 79 19 153.5t58.5 141t95.5 116t136 78.5t174 29q142 0 244 -64t102 -159q0 -47 -25.5 -71.5t-60.5 -24.5q-37 0 -58 24.5t-7 63.5q16 39 16 76q0 34 -16.5 60.5t-40.5 41.5t-55.5 24t-56.5 12t-48 3
q-86 0 -152 -32t-105 -88t-59 -126t-20 -151q0 -106 32.5 -213.5t89 -195.5t141.5 -143t182 -55q65 0 121 29t89.5 72t53.5 84t24 74l15 -5q-34 -144 -124.5 -219t-260.5 -75z" />
    <glyph glyph-name="d" unicode="d" horiz-adv-x="1222" 
d="M541 1047q248 0 329 -275v614q0 51 -30.5 77.5t-81.5 17.5h-4v14l268 41v-1407q0 -52 31 -83.5t82 -31.5h36v-14h-301v584q-4 80 -22 153t-50 135.5t-83.5 100t-116.5 37.5q-86 0 -157.5 -50.5t-116.5 -132.5t-70 -182t-25 -203q0 -89 18.5 -167t53.5 -140.5t93 -98.5
t132 -36q113 0 177.5 63t64.5 154q0 100 -78 184l10 11q84 -81 84 -197q0 -96 -62.5 -162.5t-180.5 -66.5q-89 0 -165 29.5t-129.5 79.5t-91 117t-55.5 142.5t-18 155.5q0 102 30 197t85.5 171.5t144.5 122.5t199 46z" />
    <glyph glyph-name="e" unicode="e" horiz-adv-x="1052" 
d="M586 -20q-121 0 -219.5 46.5t-159 123.5t-93 172t-32.5 198q0 128 42 229.5t111.5 163t153.5 93.5t174 32q107 0 198.5 -41.5t150.5 -128t59 -202.5q0 -63 -23.5 -119.5t-69 -102.5t-120.5 -73t-170 -27q-118 0 -189 75.5t-84 184.5l13 6q11 -105 79.5 -178.5
t182.5 -73.5q81 0 140.5 44.5t87.5 113.5t28 150q0 159 -98 256.5t-226 97.5q-59 0 -111.5 -23.5t-95 -69.5t-67.5 -123.5t-25 -176.5q0 -106 32.5 -213.5t89 -195.5t141.5 -143t182 -55q65 0 121 29t89.5 72t53.5 84t24 74l15 -5q-79 -294 -385 -294z" />
    <glyph glyph-name="f" unicode="f" horiz-adv-x="686" 
d="M358 1010v-885q0 -50 26 -80.5t69 -30.5h51v-14h-453v14h62q43 0 68.5 30.5t25.5 80.5v885h-152l2 14h150v55q0 105 32.5 187t85 129.5t113 71.5t123.5 24q98 0 156.5 -49.5t58.5 -108.5q0 -40 -23 -63t-53 -23t-50.5 22.5t-20.5 61.5q0 60 -31.5 96.5t-75.5 36.5
q-65 0 -114.5 -76.5t-49.5 -222.5v-141h273v-14h-273z" />
    <glyph glyph-name="g" unicode="g" horiz-adv-x="1124" 
d="M565 365q-111 0 -200.5 29t-145 77.5t-84.5 109t-29 126.5q0 65 29 125t84.5 108.5t145 77.5t200.5 29q168 0 287 -68q60 54 88.5 93.5t28.5 74.5q0 47 -51 98q-19 19 -19 37q0 24 25 41.5t57 17.5q29 0 48.5 -19.5t19.5 -59.5q0 -73 -41 -133.5t-144 -155.5
q77 -48 117.5 -118.5t40.5 -147.5q0 -120 -90.5 -214.5t-257.5 -119.5q36 -38 100.5 -92.5t115.5 -99t102 -98.5t79.5 -115.5t28.5 -125.5q0 -75 -37.5 -143.5t-107 -121.5t-177.5 -84.5t-239 -31.5q-115 0 -211 22t-161.5 58.5t-111.5 85.5t-67 103t-21 110
q0 64 27.5 122.5t78 104.5t129 73.5t173.5 27.5q134 0 230 -70.5t153 -187.5l-15 -6q-55 113 -147 181.5t-221 68.5q-131 0 -207 -88.5t-76 -212.5q0 -55 16.5 -108t52.5 -102t87 -86t126 -59t165 -22q105 0 188.5 29.5t133.5 78t76 106t26 117.5q0 67 -21 131.5t-60 124
t-76.5 105.5t-88.5 105.5t-78 95.5q-46 -4 -74 -4zM633 729l104 117l13 -6l-91 -103q-81 -86 -81 -174q0 -85 75 -170q122 7 183 71.5t61 160.5q0 67 -29 136.5t-79.5 126.5t-125.5 93.5t-159 36.5q-137 0 -205 -65.5t-68 -168.5q0 -66 29.5 -135t79.5 -125.5t125 -93
t158 -37.5q-66 93 -66 170q0 81 76 166z" />
    <glyph glyph-name="h" unicode="h" horiz-adv-x="1239" 
d="M356 893v-764q0 -52 31 -83.5t82 -31.5h37v-14h-453v14h37q51 0 83 31.5t32 83.5v1257q0 51 -31 77.5t-82 17.5h-4v14l268 41v-623q55 66 139 100t177 34q138 0 238 -67t100 -179q0 -60 -27 -147t-59 -161.5t-59 -162t-27 -148.5q0 -82 32 -125t84 -43q60 0 125 57.5
t113 161.5l12 -8q-61 -128 -146 -192t-169 -64q-86 0 -144 59t-59 154q1 50 29 136.5t61 166.5t60.5 175t27.5 161q0 89 -71.5 145t-171.5 56q-73 0 -143 -32t-122 -97z" />
    <glyph glyph-name="i" unicode="i" horiz-adv-x="555" 
d="M203 1126l-6 13q59 30 59 57q0 14 -29.5 48.5t-29.5 62.5q0 32 26 51.5t62 19.5q32 0 56 -21t24 -61q0 -26 -9 -48t-30.5 -41t-35.5 -29t-46 -28t-41 -24zM354 1047v-918q0 -53 31 -84t84 -31h35v-14h-453v14h37q52 0 83.5 31t31.5 84v766q0 52 -31 78.5t-82 17.5h-4v15z
" />
    <glyph glyph-name="j" unicode="j" horiz-adv-x="514" 
d="M203 1126l-6 13q59 30 59 57q0 14 -29.5 48.5t-29.5 62.5q0 32 26 51.5t62 19.5q32 0 56 -21t24 -61q0 -26 -9 -48t-30.5 -41t-35.5 -29t-46 -28t-41 -24zM373 1047v-1059q0 -105 -33.5 -186t-89 -127.5t-119 -69.5t-131.5 -23q-52 0 -113 13.5t-113.5 48t-52.5 80.5
q0 44 25 67t61 23q40 0 62 -25q16 -15 22.5 -50.5t9 -66t27 -54.5t72.5 -24q94 0 157.5 79t63.5 229v993q0 53 -30.5 79t-81.5 17h-5v15z" />
    <glyph glyph-name="k" unicode="k" horiz-adv-x="1193" 
d="M356 432v-303q0 -52 31 -83.5t82 -31.5h37v-14h-453v14h37q51 0 83 31.5t32 83.5v1257q0 51 -31 77.5t-82 17.5h-4v14l268 41v-1081l308 389q43 55 43 94q0 34 -32 53t-91 19h-15v14h459v-14h-6q-95 0 -188.5 -45.5t-153.5 -120.5l-193 -246q114 92 246 92
q110 0 184 -66.5t74 -179.5q0 -46 -21 -94.5t-45.5 -82t-45.5 -73t-21 -71.5q0 -111 80 -111q64 0 142 64.5t120 156.5l12 -8q-62 -130 -151.5 -193t-179.5 -63q-76 0 -127.5 41t-51.5 103q0 40 21 87t46 84t46 86t21 93q0 93 -44 148t-116 55q-115 0 -248 -142z" />
    <glyph glyph-name="l" unicode="l" horiz-adv-x="557" 
d="M356 1536v-1407q0 -52 31 -83.5t82 -31.5h37v-14h-453v14h37q51 0 83 31.5t32 83.5v1257q0 51 -31 77.5t-82 17.5h-4v14z" />
    <glyph glyph-name="m" unicode="m" horiz-adv-x="1781" 
d="M354 913v-784q0 -53 31 -84t84 -31h35v-14h-453v14h37q52 0 83.5 31t31.5 84v766q0 52 -31 78.5t-82 17.5h-4v15l268 41v-113q53 56 128 84.5t155 28.5q98 0 180.5 -41t116.5 -113q52 76 136.5 115t178.5 39q83 0 154.5 -28t117.5 -85.5t46 -132.5q0 -60 -27 -147
t-59 -161.5t-59 -162t-27 -148.5q0 -82 32 -125t84 -43q60 0 125 57.5t113 161.5l12 -8q-61 -128 -146 -192t-169 -64q-87 0 -145 59t-58 154q0 50 28 136.5t61 166.5t61 175.5t28 160.5q0 90 -65.5 145.5t-157.5 55.5q-71 0 -139.5 -35.5t-118.5 -105.5q14 -44 14 -80
q0 -60 -27 -147t-59 -161.5t-59 -162t-27 -148.5q0 -82 32.5 -125t84.5 -43q59 0 125 57.5t113 161.5l12 -8q-61 -128 -146.5 -192t-171.5 -64q-85 0 -142.5 59t-57.5 154q0 50 28 136.5t61 166.5t61 175.5t28 160.5q0 90 -65.5 145.5t-157.5 55.5q-134 0 -232 -109z" />
    <glyph glyph-name="n" unicode="n" horiz-adv-x="1224" 
d="M354 129q0 -53 31 -84t84 -31h35v-14h-453v14h37q52 0 83.5 31t31.5 84v766q0 52 -31 78.5t-82 17.5h-4v15l268 41v-134q56 67 140.5 100.5t177.5 33.5q138 0 238 -67t100 -179q0 -60 -27 -147t-59 -161.5t-59 -162t-27 -148.5q0 -82 32 -125t84 -43q60 0 125 57.5
t113 161.5l12 -8q-61 -128 -146 -192t-169 -64q-86 0 -144 59t-59 154q1 50 29 136.5t61 166.5t60.5 175t27.5 161q0 89 -71.5 145t-171.5 56q-73 0 -143.5 -32t-123.5 -97v-764z" />
    <glyph glyph-name="o" unicode="o" 
d="M586 -31q-98 0 -181 30.5t-142 82t-100 121t-61 147t-20 158.5q0 103 32 198.5t93 172t159 122.5t220 46t220 -46t159 -122.5t93 -172t32 -198.5q0 -81 -20 -158.5t-61 -147t-100 -121t-142 -82t-181 -30.5zM516 1018q-105 0 -177 -53t-103 -136.5t-31 -191.5
q0 -109 33.5 -222t91 -206t143.5 -152t182 -59q80 0 141 30t97.5 83t55 120t18.5 146q0 148 -56 294t-162 246.5t-233 100.5z" />
    <glyph glyph-name="p" unicode="p" horiz-adv-x="1222" 
d="M682 1047q110 0 199 -46t144.5 -122.5t85.5 -171.5t30 -197q0 -80 -18 -155.5t-55.5 -142.5t-91 -117t-129.5 -79.5t-165 -29.5q-117 0 -180.5 66.5t-63.5 162.5q0 116 84 197l10 -11q-75 -81 -75 -184q0 -92 63 -154.5t176 -62.5q74 0 132 36t93 98.5t53.5 140.5
t18.5 167q0 103 -24.5 203t-69.5 182t-116.5 132.5t-157.5 50.5q-69 0 -123 -42.5t-85.5 -112t-47 -149t-15.5 -163.5v-926q0 -53 31 -84t84 -31h35v-14h-453v14h37q52 0 83.5 31t31.5 84v1278q0 52 -31 78.5t-82 17.5h-4v15l268 41v-277q36 128 117 202.5t211 74.5z" />
    <glyph glyph-name="q" unicode="q" horiz-adv-x="1228" 
d="M1139 1010h-2q-52 0 -83.5 -31t-31.5 -82v-1282q0 -51 31.5 -82t83.5 -31h37v-14h-453v14h37q51 0 81.5 31t30.5 82v991q-7 105 -37 193t-91 149.5t-144 61.5q-86 0 -157.5 -50.5t-116.5 -132.5t-70 -182t-25 -203q0 -89 18.5 -167t53.5 -140.5t93 -98.5t132 -36
q113 0 177.5 63t64.5 154q0 100 -78 184l10 11q84 -81 84 -197q0 -96 -62.5 -162.5t-180.5 -66.5q-89 0 -165 29.5t-129.5 79.5t-91 117t-55.5 142.5t-18 155.5q0 102 30 197t85.5 171.5t144.5 122.5t199 46q129 0 210.5 -72.5t118.5 -198.5v248h269v-14z" />
    <glyph glyph-name="r" unicode="r" horiz-adv-x="837" 
d="M354 811v-682q0 -53 31 -84t84 -31h35v-14h-453v14h37q52 0 83.5 31t31.5 84v766q0 52 -31 78.5t-82 17.5h-4v15l268 41v-222q183 242 322 242q44 0 81.5 -22.5t37.5 -63.5q0 -31 -24.5 -54.5t-65.5 -23.5q-29 0 -47 15.5t-24.5 33.5t-19.5 33.5t-32 15.5q-35 0 -103 -59
t-125 -131z" />
    <glyph glyph-name="s" unicode="s" horiz-adv-x="989" 
d="M905 285q0 -64 -24 -116.5t-62.5 -85.5t-90 -55.5t-103 -32t-103.5 -9.5q-58 0 -108.5 14.5t-85 34.5t-62.5 40.5t-51.5 35t-40.5 14.5q-33 0 -55.5 -48.5t-24.5 -92.5h-12l57 385l13 2q8 -93 43.5 -166t87.5 -116.5t112.5 -66t124.5 -22.5q116 0 207.5 67t91.5 156
q0 51 -38.5 90t-100.5 65t-137 49t-150 50t-137 61.5t-100.5 90t-38.5 127.5t30.5 128t82.5 89t115 50t134 17q99 0 186 -29.5t144 -89t57 -137.5q0 -43 -29.5 -67.5t-68.5 -24.5q-37 0 -58 24.5t-5 67.5q16 53 16 88q0 81 -68 117.5t-176 36.5q-73 0 -134 -20t-102.5 -68
t-41.5 -117q0 -55 39 -96.5t101 -68.5t137.5 -50.5t151 -50.5t137.5 -60t101 -86.5t39 -123.5z" />
    <glyph glyph-name="t" unicode="t" horiz-adv-x="720" 
d="M176 182v828h-143v14h12q55 1 101.5 10t89 30t71 53t43.5 82t10 114h15q9 -114 -41.5 -187.5t-157.5 -101.5h461v-14h-309v-822q0 -85 31.5 -129.5t84.5 -44.5q59 0 124 57.5t112 161.5l12 -8q-61 -128 -146 -192t-169 -64q-85 0 -143 59t-58 154z" />
    <glyph glyph-name="u" unicode="u" horiz-adv-x="1200" 
d="M846 190v707q0 51 -31 82t-82 31h-4v14h268v-784q0 -207 64 -207q38 0 94 82l8 -6q-71 -119 -168 -119q-60 0 -102.5 49t-46.5 133q-47 -101 -147 -153t-216 -52q-89 0 -165 28t-124.5 85t-48.5 131q0 61 26.5 148t58.5 161.5t58.5 162t26.5 148.5q0 82 -31 125t-83 43
q-62 0 -127 -59l-11 10q96 92 203 92q85 0 143 -58t58 -153q0 -51 -27.5 -137.5t-60.5 -166t-60.5 -174.5t-27.5 -160q0 -91 71 -146t173 -55q91 0 174.5 49.5t136.5 148.5z" />
    <glyph glyph-name="v" unicode="v" horiz-adv-x="1062" 
d="M580 -2h-17l-375 907q-20 48 -62.5 76.5t-94.5 28.5h-21v14h457v-14h-39q-38 0 -59 -17t-21 -47q0 -18 10 -41l297 -735q21 37 69.5 121t76.5 133t67.5 126.5t61.5 130.5t38.5 113t16.5 105q0 49 -35.5 82t-79.5 33t-73 -36.5t-29 -109.5q0 -35 -19.5 -53t-48.5 -18
q-27 0 -47 19t-20 54q0 71 65.5 117.5t145.5 46.5q66 0 110.5 -34t44.5 -101q0 -84 -51.5 -212t-115.5 -238.5t-142 -245.5t-110 -205z" />
    <glyph glyph-name="w" unicode="w" horiz-adv-x="1589" 
d="M928 903l262 -731q15 27 58 101.5t64 113.5t58 107.5t57 114.5t42 102.5t32 102.5t10 85q0 49 -35.5 82t-80.5 33q-42 0 -71.5 -36.5t-29.5 -109.5q0 -35 -19.5 -53t-47.5 -18q-29 0 -49.5 19t-20.5 54q0 71 66.5 117.5t146.5 46.5q67 0 111.5 -34t44.5 -101
q0 -81 -48 -203t-106.5 -226t-135.5 -238.5t-110 -202.5l-14 -31h-10l-275 727l-286 -727h-15l-336 891q-20 54 -68.5 87.5t-105.5 33.5h-6v14h457v-14h-23q-45 0 -69.5 -20t-24.5 -56q0 -24 8 -45l248 -688l213 549l-59 153q-17 48 -59.5 77.5t-94.5 29.5h-20v14h456v-14
h-38q-39 0 -60.5 -18.5t-21.5 -49.5q0 -18 6 -39z" />
    <glyph glyph-name="x" unicode="x" horiz-adv-x="1050" 
d="M844 915q-88 -119 -275 -292l277 -508q25 -45 71.5 -73t98.5 -28h24v-14h-456v14h20q36 0 56 14.5t20 39.5q0 19 -14 47l-213 399q-202 -184 -244 -227q-113 -114 -113 -162q0 -49 36 -83t81 -34q42 0 72 36.5t30 109.5q0 35 19.5 54t46.5 19q29 0 49.5 -19t20.5 -54
q0 -72 -66 -118t-147 -46q-67 0 -111.5 34t-44.5 101q0 27 21.5 62.5t80.5 95t93.5 91.5t128.5 116q27 24 40 36l-204 383q-25 45 -71.5 73t-96.5 28h-23v14h457v-14h-35q-36 0 -56 -14t-20 -38q0 -18 17 -49l149 -274q145 134 223 231q33 45 33 74q0 31 -29 50.5t-81 19.5
h-17v14h330v-14h-10q-46 0 -92 -25.5t-76 -69.5z" />
    <glyph glyph-name="y" unicode="y" horiz-adv-x="1044" 
d="M983 899q0 -90 -94.5 -327t-224.5 -463q-11 -21 -34 -58.5t-30 -50.5h-2q-107 -172 -210.5 -274.5t-188.5 -102.5q-54 0 -84.5 32t-30.5 75q0 40 27 69t77 29q22 0 42 -23t41.5 -46t47.5 -23q41 0 108.5 69.5t141.5 180.5l-376 907q-22 52 -69.5 84.5t-103.5 32.5h-10v14
h457v-14h-27q-42 0 -65 -18.5t-23 -51.5q0 -27 10 -47l302 -750q124 222 214.5 442t90.5 314q0 49 -36 82t-81 33q-42 0 -72 -36.5t-30 -109.5q0 -34 -19.5 -52.5t-46.5 -18.5q-29 0 -49.5 19t-20.5 54q0 71 66.5 117.5t146.5 46.5q67 0 111.5 -34t44.5 -101z" />
    <glyph glyph-name="z" unicode="z" horiz-adv-x="952" 
d="M815 0h-754l619 1010h-258q-62 0 -116 -25.5t-87 -57.5t-61 -76.5t-37.5 -66t-16.5 -41.5q-1 -3 -4.5 -4.5t-6.5 -1.5h-3l70 287h704l-614 -1010h291q63 0 118.5 25t90.5 59t62.5 75.5t39 66.5t16.5 41q2 6 17 6z" />
    <glyph glyph-name="braceleft" unicode="{" horiz-adv-x="634" 
d="M61 655q79 1 128.5 24.5t72 49t25 87.5t-2 93t-19.5 112q-14 105 -23.5 197t64 154t239.5 62v-15q-58 0 -92.5 -23.5t-46 -64.5t-12 -94t4.5 -113.5t8.5 -121.5t-4.5 -119t-30 -105.5t-73.5 -82t-129.5 -46.5q79 -12 130.5 -46t74.5 -81t31.5 -104t5.5 -117t-7.5 -119.5
t-3.5 -111.5t13 -92t46.5 -63.5t92.5 -23.5v-14q-163 0 -236 61t-65.5 150.5t19.5 192.5q12 94 19 173.5t-48 132.5t-181 54v14z" />
    <glyph glyph-name="bar" unicode="|" horiz-adv-x="260" 
d="M123 -188v1622h14v-1622h-14z" />
    <glyph glyph-name="braceright" unicode="}" horiz-adv-x="634" 
d="M573 655v-14q-126 -1 -181 -54t-47.5 -132.5t19.5 -173.5q13 -79 17.5 -120t-2.5 -105t-36.5 -96t-94.5 -57.5t-166 -25.5v14q59 0 93.5 23.5t46.5 63.5t13 92t-3.5 111.5t-7.5 119.5t5.5 117t31.5 104t75 81t131 46q-100 16 -156 67t-70.5 120t-13 148.5t8.5 156t3 139
t-39.5 101t-109.5 38.5v15q75 0 130 -13.5t89 -32t52.5 -55t26.5 -64t4.5 -79.5t-8 -81.5t-15.5 -87.5q-14 -74 -19 -111t-2 -94.5t25 -86t71.5 -51t128.5 -23.5z" />
    <glyph glyph-name="asciitilde" unicode="~" horiz-adv-x="837" 
d="M66 551l-13 8q91 182 201 182q36 0 86 -25t93 -55.5t98.5 -55.5t101.5 -25q85 0 143 90l10 -6q-21 -35 -36.5 -57.5t-40.5 -51t-53 -43t-58 -14.5q-34 0 -85 24.5t-96 54t-102 54t-102 24.5q-90 0 -147 -104z" />
    <glyph glyph-name="exclamdown" unicode="&#xa1;" horiz-adv-x="370" 
d="M281 963q0 -42 -27.5 -66.5t-63.5 -24.5q-35 0 -61.5 24.5t-26.5 66.5q0 43 27 67.5t64 24.5q35 0 61.5 -24.5t26.5 -67.5zM199 762l88 -1159h-191l88 1159h15z" />
    <glyph glyph-name="cent" unicode="&#xa2;" horiz-adv-x="1040" 
d="M551 1315l14 -2v-178q142 0 244 -64.5t102 -159.5q0 -49 -29 -76.5t-69 -27.5q-52 0 -78 39q-13 21 -5.5 50.5t32.5 57.5q26 27 24.5 57.5t-28.5 49.5q-81 56 -193 59v-987q53 -16 103 -16q65 0 121 29t89.5 71.5t53.5 83.5t24 74l15 -4q-38 -162 -136.5 -228.5
t-269.5 -66.5v-162l-14 2v162q-113 6 -204.5 54.5t-148 124.5t-86.5 168t-30 191q0 78 18.5 151.5t57 139.5t93 115.5t132 80t168.5 32.5v180zM551 139v981q-117 -2 -195 -65.5t-107 -160t-22.5 -213.5t46.5 -224.5t113 -195t165 -122.5z" />
    <glyph glyph-name="sterling" unicode="&#xa3;" horiz-adv-x="962" 
d="M504 1376q-41 -40 -45.5 -150.5t9 -293t11.5 -273.5h246v-14h-248q-12 -398 -340 -596h223q104 0 192.5 17.5t143 42t95 54t57.5 50t22 33.5q1 3 5 4.5t8 1.5h4l-72 -252h-711v31q189 242 218 614h-281v14h281q4 55 6 122.5t2.5 118.5t2.5 109.5t6 102.5t13.5 90t25 79
t40.5 63.5t58.5 49t81.5 29.5t108 11q43 0 68.5 -22.5t28.5 -51t-14.5 -57.5t-52.5 -41q-18 -5 -36.5 3.5t-30.5 26.5l-39 58q-25 36 -62 36q-14 0 -24 -10z" />
    <glyph glyph-name="currency" unicode="&#xa4;" 
 />
    <glyph glyph-name="yen" unicode="&#xa5;" horiz-adv-x="1300" 
d="M1126 1352l-362 -629h289v-14h-291v-234h291v-14h-291v-447h151v-14h-458v14h151v447h-307v14h307v199l-22 35h-285v14h276l-423 696h-138v15h457v-15h-147l436 -678l348 611q17 31 6.5 49t-45.5 18h-68v15h285v-15h-43q-36 0 -68 -18t-49 -49z" />
    <glyph glyph-name="brokenbar" unicode="&#xa6;" horiz-adv-x="1128" 
 />
    <glyph glyph-name="section" unicode="&#xa7;" horiz-adv-x="1050" 
 />
    <glyph glyph-name="dieresis" unicode="&#xa8;" horiz-adv-x="385" 
d="M18 1214q0 33 20.5 51.5t49.5 18.5t49.5 -18.5t20.5 -51.5q0 -30 -21 -47.5t-49 -17.5t-49 17.5t-21 47.5zM227 1214q0 33 20.5 51.5t47.5 18.5q28 0 47.5 -18.5t19.5 -51.5q0 -31 -19.5 -48t-47.5 -17q-27 0 -47.5 17.5t-20.5 47.5z" />
    <glyph glyph-name="copyright" unicode="&#xa9;" horiz-adv-x="1458" 
d="M731 23q-178 0 -329 87.5t-238.5 237t-87.5 324.5q0 130 52.5 249.5t140.5 206t209 138t253 51.5q130 0 250 -51.5t207 -138.5t138.5 -206t51.5 -249q0 -175 -87.5 -324.5t-236.5 -237t-323 -87.5zM731 1303q-143 0 -259 -54.5t-187 -143.5t-109.5 -202.5t-38 -232.5
t39 -232.5t109.5 -202.5t187 -143.5t258 -54.5q141 0 255 54.5t184 143.5t108.5 202.5t38.5 232.5t-38 232.5t-108 202.5t-184.5 143.5t-255.5 54.5zM1012 473l12 -119q-127 -106 -289 -106q-103 0 -186 36t-133.5 97t-77.5 137t-27 160q0 85 27 161t78 136.5t133.5 96.5
t185.5 36q164 0 289 -104l-25 -160q0 106 -86.5 179t-177.5 73q-83 0 -149.5 -36t-108 -94.5t-63.5 -134t-22 -153.5t22 -153.5t63.5 -134t108 -94.5t149.5 -36q88 0 164.5 54t112.5 159z" />
    <glyph glyph-name="ordfeminine" unicode="&#xaa;" horiz-adv-x="731" 
 />
    <glyph glyph-name="guillemotleft" unicode="&#xab;" horiz-adv-x="624" 
d="M397 256l-342 436v47l342 437v-52l-325 -407l325 -410v-51zM575 256l-344 436v47l344 437v-52l-327 -407l327 -410v-51z" />
    <glyph glyph-name="logicalnot" unicode="&#xac;" 
 />
    <glyph glyph-name="registered" unicode="&#xae;" horiz-adv-x="616" 
d="M49 1235q0 122 78 191t184 69t183 -68.5t77 -191.5q0 -128 -77 -199t-183 -71t-184 71.5t-78 198.5zM66 1235q0 -121 72.5 -188.5t172.5 -67.5q98 0 171 68t73 188q0 118 -73 184t-171 66q-100 0 -172.5 -66t-72.5 -184zM231 1067h-16v336h94q46 0 78.5 -26.5t32.5 -73.5
q0 -40 -27.5 -66.5t-68.5 -34.5l-11 -2l107 -133h-21l-104 133h-64v-133zM231 1391v-177h70q41 0 73 22.5t32 66.5q0 46 -30.5 67t-72.5 21h-72z" />
    <glyph glyph-name="macron" unicode="&#xaf;" horiz-adv-x="522" 
 />
    <glyph glyph-name="degree" unicode="&#xb0;" horiz-adv-x="583" 
d="M293 958q-117 0 -182.5 72.5t-65.5 171.5q0 100 65.5 173t182.5 73q116 0 181 -72t65 -172t-65 -173t-181 -73zM293 1434q-59 0 -102 -34t-62.5 -85t-19.5 -110.5t19.5 -110.5t62.5 -85t102 -34q58 0 100.5 34t62 85t19.5 110.5t-19 110.5t-62 85t-101 34z" />
    <glyph glyph-name="plusminus" unicode="&#xb1;" horiz-adv-x="835" 
d="M412 283v364h-365v15h365v366h16v-366h365v-15h-365v-364h-16zM47 0v16h746v-16h-746z" />
    <glyph glyph-name="twosuperior" unicode="&#xb2;" horiz-adv-x="716" 
 />
    <glyph glyph-name="threesuperior" unicode="&#xb3;" horiz-adv-x="716" 
 />
    <glyph glyph-name="acute" unicode="&#xb4;" horiz-adv-x="309" 
d="M31 1145l188 223l57 -65l-239 -164z" />
    <glyph glyph-name="paragraph" unicode="&#xb6;" horiz-adv-x="1341" 
 />
    <glyph glyph-name="periodcentered" unicode="&#xb7;" horiz-adv-x="317" 
d="M72 721q0 42 27 66t63 24q35 0 61.5 -24t26.5 -66q0 -43 -27 -67.5t-63 -24.5q-35 0 -61.5 24.5t-26.5 67.5z" />
    <glyph glyph-name="cedilla" unicode="&#xb8;" horiz-adv-x="368" 
d="M176 29l27 -9l-72 -163q125 -4 171 -76q35 -53 7 -106q-31 -58 -111 -62h-10q-43 0 -79.5 15.5t-52.5 31.5l-15 16l39 93q0 -148 92 -148q47 0 72 51q28 56 2 109q-31 67 -129 67z" />
    <glyph glyph-name="onesuperior" unicode="&#xb9;" horiz-adv-x="716" 
 />
    <glyph glyph-name="ordmasculine" unicode="&#xba;" horiz-adv-x="770" 
 />
    <glyph glyph-name="guillemotright" unicode="&#xbb;" horiz-adv-x="622" 
d="M229 256v51l326 410l-326 407v52l344 -437v-47zM55 256v51l324 410l-324 407v52l340 -437v-47z" />
    <glyph glyph-name="onequarter" unicode="&#xbc;" horiz-adv-x="2500" 
d="M365 1434v-1252q0 -75 39.5 -121.5t103.5 -46.5h8v-14h-459v14h9q64 0 103.5 46.5t39.5 121.5v1094l-115 -33v10q64 20 131.5 65.5t103.5 80.5zM2134 528h-666v15l803 891h19v-891h139v-15h-139v-346q0 -75 39.5 -121.5t103.5 -46.5h6v-14h-457v14h9q64 0 103.5 46.5
t39.5 121.5v346zM649 0h-14l719 1432h16zM2134 1260l-645 -717h645v717z" />
    <glyph glyph-name="onehalf" unicode="&#xbd;" horiz-adv-x="2433" 
d="M1743 1151q-27 -10 -49 -10q-45 0 -77 28.5t-32 69.5q0 56 53 103t136 73.5t174 26.5q56 0 108 -11t99.5 -35.5t82.5 -61.5t55.5 -93t20.5 -125q0 -74 -17.5 -143.5t-56 -137.5t-81.5 -127.5t-112.5 -133.5t-129.5 -134.5t-151.5 -153t-161.5 -167.5h356q86 0 157 14
t111.5 34.5t63 39t28.5 33.5q1 3 3.5 3t4.5 -1l3 -2l-54 -240h-804l18 18q40 45 107 119t114.5 126t110.5 128t107.5 137.5t91.5 140.5t75.5 151t47 156.5t18.5 168.5q0 78 -19 134.5t-52.5 87t-71.5 44.5t-83 14q-77 0 -147 -36q-27 -14 -33 -50t12 -73q18 -35 10 -69
t-36 -46zM365 1434v-1252q0 -75 39.5 -121.5t103.5 -46.5h8v-14h-459v14h9q64 0 103.5 46.5t39.5 121.5v1094l-115 -33v10q64 20 131.5 65.5t103.5 80.5zM649 0h-14l719 1432h16z" />
    <glyph glyph-name="threequarters" unicode="&#xbe;" horiz-adv-x="3039" 
d="M256 168l-10 -31q-18 -53 58.5 -92t187.5 -39q57 0 111 11.5t107 39t92 69t63 107t24 146.5q0 78 -26 150.5t-75 132t-129.5 95t-181.5 34.5v14q78 -5 141.5 23.5t101.5 78.5t58.5 111t20.5 125q0 78 -24.5 136t-66 89.5t-88.5 46.5t-100 15q-96 0 -168 -44
q-21 -14 -29 -47.5t1 -74.5q6 -37 -6.5 -68.5t-36.5 -38.5q-21 -6 -43 -6q-38 0 -65.5 21.5t-27.5 60.5q0 62 55 111t140.5 74.5t183.5 25.5q81 0 154 -19.5t134 -58.5t97.5 -106t36.5 -154q0 -111 -88 -191t-223 -118q173 -40 290 -149t117 -255q0 -84 -30.5 -153.5
t-81 -115.5t-119.5 -77t-143 -45t-154 -14q-117 0 -221 29t-170 83.5t-66 122.5q0 50 33 78.5t78 28.5q30 0 61 -17q28 -15 36 -57t-9 -88zM2673 528h-666v15l803 891h18v-891h140v-15h-140v-346q0 -75 40 -121.5t104 -46.5h6v-14h-457v14h8q64 0 104 46.5t40 121.5v346z
M1188 0h-14l718 1432h17zM2673 1260l-645 -717h645v717z" />
    <glyph glyph-name="questiondown" unicode="&#xbf;" horiz-adv-x="899" 
d="M668 961q0 -42 -27 -66.5t-63 -24.5q-35 0 -62 24.5t-27 66.5q0 43 27 67.5t64 24.5q35 0 61.5 -24.5t26.5 -67.5zM555 719h12q0 -100 -19 -187t-49.5 -149t-67 -118t-73 -105t-67 -97.5t-49.5 -108.5t-19 -126q0 -113 61.5 -166t155.5 -53q83 0 157.5 36t94.5 87
l-86 149q19 23 52 38t65 15t53 -19t21 -60q0 -40 -22.5 -83.5t-66 -84t-118.5 -67t-168 -26.5q-90 0 -163 32t-120 102t-47 168q0 69 20 127.5t52.5 99t74 81t85 74t85 78t74 92t52.5 118t20 153.5z" />
    <glyph glyph-name="Agrave" unicode="&#xc0;" horiz-adv-x="1646" 
d="M690 1823l189 -224l-5 -6l-241 164zM1192 166l-170 385q-88 31 -180 31q-194 0 -355 -112t-258 -292q-30 -69 -1.5 -116.5t100.5 -47.5v-14h-312v14q50 0 111 55.5t88 114.5l490 1090l-70 160h164l565 -1280q29 -63 83 -101.5t114 -38.5h2v-14h-457v14h8q64 0 85.5 42
t-7.5 110zM1014 569l-301 686l-441 -976q104 145 252.5 231t317.5 86q90 0 172 -27z" />
    <glyph glyph-name="Aacute" unicode="&#xc1;" horiz-adv-x="1646" 
d="M903 1804l58 -65l-240 -164l-6 6zM1192 166l-170 385q-88 31 -180 31q-194 0 -355 -112t-258 -292q-30 -69 -1.5 -116.5t100.5 -47.5v-14h-312v14q50 0 111 55.5t88 114.5l490 1090l-70 160h164l565 -1280q29 -63 83 -101.5t114 -38.5h2v-14h-457v14h8q64 0 85.5 42
t-7.5 110zM1014 569l-301 686l-441 -976q104 145 252.5 231t317.5 86q90 0 172 -27z" />
    <glyph glyph-name="Acircumflex" unicode="&#xc2;" horiz-adv-x="1646" 
d="M748 1739h90l108 -180h-10l-143 137l-142 -137h-12zM1192 166l-170 385q-88 31 -180 31q-194 0 -355 -112t-258 -292q-30 -69 -1.5 -116.5t100.5 -47.5v-14h-312v14q50 0 111 55.5t88 114.5l490 1090l-70 160h164l565 -1280q29 -63 83 -101.5t114 -38.5h2v-14h-457v14h8
q64 0 85.5 42t-7.5 110zM1014 569l-301 686l-441 -976q104 145 252.5 231t317.5 86q90 0 172 -27z" />
    <glyph glyph-name="Atilde" unicode="&#xc3;" horiz-adv-x="1646" 
d="M625 1595l-9 4q4 5 16.5 21.5t19 23.5t19 20t22.5 19.5t24 11.5t28 5q33 0 97 -40t102 -40q43 0 80 37l6 -6q-67 -84 -117 -84q-37 0 -102 35.5t-98 35.5q-45 0 -88 -43zM1192 166l-170 385q-88 31 -180 31q-194 0 -355 -112t-258 -292q-30 -69 -1.5 -116.5t100.5 -47.5
v-14h-312v14q50 0 111 55.5t88 114.5l490 1090l-70 160h164l565 -1280q29 -63 83 -101.5t114 -38.5h2v-14h-457v14h8q64 0 85.5 42t-7.5 110zM1014 569l-301 686l-441 -976q104 145 252.5 231t317.5 86q90 0 172 -27z" />
    <glyph glyph-name="Adieresis" unicode="&#xc4;" horiz-adv-x="1646" 
d="M606 1620q0 33 20.5 51.5t49.5 18.5q28 0 48.5 -18.5t20.5 -51.5q0 -31 -20.5 -48.5t-48.5 -17.5t-49 17.5t-21 48.5zM815 1620q0 33 20.5 51.5t47.5 18.5q28 0 47.5 -18.5t19.5 -51.5q0 -31 -19.5 -48.5t-47.5 -17.5q-27 0 -47.5 18t-20.5 48zM1192 166l-170 385
q-88 31 -180 31q-194 0 -355 -112t-258 -292q-30 -69 -1.5 -116.5t100.5 -47.5v-14h-312v14q50 0 111 55.5t88 114.5l490 1090l-70 160h164l565 -1280q29 -63 83 -101.5t114 -38.5h2v-14h-457v14h8q64 0 85.5 42t-7.5 110zM1014 569l-301 686l-441 -976q104 145 252.5 231
t317.5 86q90 0 172 -27z" />
    <glyph glyph-name="Aring" unicode="&#xc5;" horiz-adv-x="1646" 
d="M786 1434q-79 0 -122 44.5t-43 106.5q0 63 43 108.5t122 45.5q77 0 118.5 -45t41.5 -107q0 -63 -41.5 -108t-118.5 -45zM786 1729q-51 0 -80.5 -44t-29.5 -97.5t29.5 -97.5t80.5 -44t79.5 44t28.5 97.5t-28.5 97.5t-79.5 44zM1192 166l-170 385q-88 31 -180 31
q-194 0 -355 -112t-258 -292q-30 -69 -1.5 -116.5t100.5 -47.5v-14h-312v14q50 0 111 55.5t88 114.5l490 1090l-70 160h164l565 -1280q29 -63 83 -101.5t114 -38.5h2v-14h-457v14h8q64 0 85.5 42t-7.5 110zM1014 569l-301 686l-441 -976q104 145 252.5 231t317.5 86
q90 0 172 -27z" />
    <glyph glyph-name="AE" unicode="&#xc6;" horiz-adv-x="1937" 
d="M174 80l731 1288q-39 51 -117 51h-4v15h961l67 -287q-14 0 -16 6q-28 78 -51 116q-89 150 -238 150h-415v-696h376q41 0 74.5 13t53 31t35.5 44.5t22 45t12.5 41.5t7.5 26t4 4.5t6 1.5h3q-12 -133 -12 -217t12 -244q-11 0 -13 8q-1 4 -2 11q-6 32 -10.5 52t-19 56
t-34.5 57.5t-56 38.5t-83 17h-376v-695h510q198 0 285 259q2 6 3 8q2 6 17 6l-70 -287h-1053v14h4q66 0 107 41t41 107v377h-481l-260 -459q-17 -29 -9 -47.5t37 -18.5h78v-14h-285v14h56q29 0 57 18t45 48zM463 553h473v719q0 42 -21 82z" />
    <glyph glyph-name="Ccedilla" unicode="&#xc7;" horiz-adv-x="1380" 
d="M926 16q140 0 248.5 70.5t171.5 181.5l8 -8q-31 -50 -62.5 -89.5t-78 -79t-99.5 -65t-125.5 -41.5t-157.5 -16q-43 0 -63 2l-59 -137q125 -4 171 -76q35 -53 7 -106q-31 -58 -111 -62h-10q-43 0 -80 16t-52 32l-16 16l39 92q0 -147 93 -147q47 0 72 51q27 56 2 109
q-32 67 -130 67l49 147q-129 13 -238.5 60.5t-187 119.5t-132 163.5t-81 193t-26.5 207.5q0 165 58 306t155 234t221.5 145t259.5 52q48 0 96.5 -6.5t99 -20t94 -37t78 -54t54.5 -75t20 -96.5q0 -67 -33 -103t-77 -36q-36 0 -63 24.5t-27 65.5q0 36 15 61t33 34.5t33.5 23.5
t17.5 28t-15 48q-52 65 -146.5 94t-187.5 29q-267 0 -414 -191q-124 -162 -127 -408q-3 -242 112 -452q120 -219 324 -311q124 -56 267 -56z" />
    <glyph glyph-name="Egrave" unicode="&#xc8;" horiz-adv-x="1239" 
d="M481 1712l58 66l188 -224l-4 -6zM55 14h4q66 0 107 41t41 107v1110q0 66 -41 106.5t-107 40.5h-4v15h961l67 -287q-14 0 -16 6q-28 78 -51 116q-89 150 -238 150h-416v-696h377q41 0 74.5 13t53 31t35.5 44.5t22 45t12.5 41.5t7.5 26t4 4.5t6 1.5h2q-12 -133 -12 -217
t12 -244q-10 0 -12 8q-1 4 -2 11q-6 32 -10.5 52t-19 56t-34.5 57.5t-56 38.5t-83 17h-377v-695h510q199 0 286 259q2 6 3 8q2 6 17 6l-70 -287h-1053v14z" />
    <glyph glyph-name="Eacute" unicode="&#xc9;" horiz-adv-x="1239" 
d="M481 1554l189 224l57 -66l-240 -164zM55 14h4q66 0 107 41t41 107v1110q0 66 -41 106.5t-107 40.5h-4v15h961l67 -287q-14 0 -16 6q-28 78 -51 116q-89 150 -238 150h-416v-696h377q41 0 74.5 13t53 31t35.5 44.5t22 45t12.5 41.5t7.5 26t4 4.5t6 1.5h2
q-12 -133 -12 -217t12 -244q-10 0 -12 8q-1 4 -2 11q-6 32 -10.5 52t-19 56t-34.5 57.5t-56 38.5t-83 17h-377v-695h510q199 0 286 259q2 6 3 8q2 6 17 6l-70 -287h-1053v14z" />
    <glyph glyph-name="Ecircumflex" unicode="&#xca;" horiz-adv-x="1239" 
d="M451 1559l108 180h90l109 -180h-10l-144 137l-141 -137h-12zM55 14h4q66 0 107 41t41 107v1110q0 66 -41 106.5t-107 40.5h-4v15h961l67 -287q-14 0 -16 6q-28 78 -51 116q-89 150 -238 150h-416v-696h377q41 0 74.5 13t53 31t35.5 44.5t22 45t12.5 41.5t7.5 26t4 4.5
t6 1.5h2q-12 -133 -12 -217t12 -244q-10 0 -12 8q-1 4 -2 11q-6 32 -10.5 52t-19 56t-34.5 57.5t-56 38.5t-83 17h-377v-695h510q199 0 286 259q2 6 3 8q2 6 17 6l-70 -287h-1053v14z" />
    <glyph glyph-name="Edieresis" unicode="&#xcb;" horiz-adv-x="1239" 
d="M432 1624q0 33 20.5 51.5t49.5 18.5q28 0 48.5 -18.5t20.5 -51.5q0 -31 -20.5 -48t-48.5 -17t-49 17.5t-21 47.5zM641 1624q0 33 20.5 51.5t47.5 18.5q28 0 47.5 -18.5t19.5 -51.5q0 -31 -19.5 -48t-47.5 -17q-27 0 -47.5 17.5t-20.5 47.5zM55 14h4q66 0 107 41t41 107
v1110q0 66 -41 106.5t-107 40.5h-4v15h961l67 -287q-14 0 -16 6q-28 78 -51 116q-89 150 -238 150h-416v-696h377q41 0 74.5 13t53 31t35.5 44.5t22 45t12.5 41.5t7.5 26t4 4.5t6 1.5h2q-12 -133 -12 -217t12 -244q-10 0 -12 8q-1 4 -2 11q-6 32 -10.5 52t-19 56t-34.5 57.5
t-56 38.5t-83 17h-377v-695h510q199 0 286 259q2 6 3 8q2 6 17 6l-70 -287h-1053v14z" />
    <glyph glyph-name="Igrave" unicode="&#xcc;" horiz-adv-x="571" 
d="M162 1712l57 66l189 -224l-5 -6zM516 1419h-8q-64 0 -103.5 -46.5t-39.5 -121.5v-1069q0 -75 39.5 -121.5t103.5 -46.5h8v-14h-459v14h9q64 0 103.5 46.5t39.5 121.5v1069q0 75 -39.5 121.5t-103.5 46.5h-9v15h459v-15z" />
    <glyph glyph-name="Iacute" unicode="&#xcd;" horiz-adv-x="571" 
d="M162 1554l188 224l58 -66l-240 -164zM516 1419h-8q-64 0 -103.5 -46.5t-39.5 -121.5v-1069q0 -75 39.5 -121.5t103.5 -46.5h8v-14h-459v14h9q64 0 103.5 46.5t39.5 121.5v1069q0 75 -39.5 121.5t-103.5 46.5h-9v15h459v-15z" />
    <glyph glyph-name="Icircumflex" unicode="&#xce;" horiz-adv-x="571" 
d="M131 1559l109 180h90l108 -180h-10l-143 137l-142 -137h-12zM516 1419h-8q-64 0 -103.5 -46.5t-39.5 -121.5v-1069q0 -75 39.5 -121.5t103.5 -46.5h8v-14h-459v14h9q64 0 103.5 46.5t39.5 121.5v1069q0 75 -39.5 121.5t-103.5 46.5h-9v15h459v-15z" />
    <glyph glyph-name="Idieresis" unicode="&#xcf;" horiz-adv-x="571" 
d="M113 1624q0 33 20.5 51.5t48.5 18.5q29 0 49.5 -18.5t20.5 -51.5q0 -30 -21 -47.5t-49 -17.5t-48.5 17t-20.5 48zM322 1624q0 33 20 51.5t47 18.5q28 0 48 -18.5t20 -51.5q0 -31 -20 -48t-48 -17q-27 0 -47 17.5t-20 47.5zM516 1419h-8q-64 0 -103.5 -46.5t-39.5 -121.5
v-1069q0 -75 39.5 -121.5t103.5 -46.5h8v-14h-459v14h9q64 0 103.5 46.5t39.5 121.5v1069q0 75 -39.5 121.5t-103.5 46.5h-9v15h459v-15z" />
    <glyph glyph-name="Eth" unicode="&#xd0;" horiz-adv-x="1413" 
d="M55 14h27q57 0 91 41t34 107v536h-254v15h254v559q0 66 -34 106.5t-91 40.5h-27v15h539q153 -1 289 -56.5t234 -150t155 -227.5t57 -283q0 -201 -97 -365.5t-265.5 -258t-372.5 -93.5h-539v14zM362 698v-684h222q164 0 299.5 101t209.5 261.5t74 340.5q0 107 -28 211
t-80.5 192t-123 155.5t-161.5 105.5t-190 38h-222v-706h224v-15h-224z" />
    <glyph glyph-name="Ntilde" unicode="&#xd1;" horiz-adv-x="1458" 
d="M530 1595l-8 4q4 5 16.5 21.5t19 23.5t19 20t22.5 19.5t24 11.5t28 5q33 0 97 -40t102 -40q43 0 80 37l6 -6q-67 -84 -117 -84q-37 0 -102 35.5t-99 35.5q-45 0 -88 -43zM217 1235v-1042q0 -79 42 -129t110 -50v-14h-316v14q68 0 110 50t42 129v1048q0 79 -42 128.5
t-110 49.5v15h201l997 -1258v1065q0 80 -41 129t-110 49v15h317v-15q-67 0 -109 -49t-42 -129v-1081l127 -160h-207z" />
    <glyph glyph-name="Ograve" unicode="&#xd2;" horiz-adv-x="1679" 
d="M717 1712l57 66l189 -224l-5 -6zM840 1464q146 0 270.5 -41.5t212 -113.5t149.5 -167.5t91.5 -203t29.5 -221.5q0 -113 -29.5 -221t-91.5 -203.5t-149.5 -167.5t-212 -114t-270.5 -42t-270.5 42t-212.5 114t-150 167.5t-91.5 203.5t-29.5 221q0 114 29.5 221.5t91.5 203
t150 167.5t212.5 113.5t270.5 41.5zM920 0q266 0 411 194q123 164 125 414q1 245 -114 458q-119 220 -319 312q-121 56 -261 56q-267 0 -412 -194q-123 -164 -125 -414q-1 -245 114 -458q120 -220 320 -312q121 -56 261 -56z" />
    <glyph glyph-name="Oacute" unicode="&#xd3;" horiz-adv-x="1679" 
d="M717 1554l188 224l58 -66l-240 -164zM840 1464q146 0 270.5 -41.5t212 -113.5t149.5 -167.5t91.5 -203t29.5 -221.5q0 -113 -29.5 -221t-91.5 -203.5t-149.5 -167.5t-212 -114t-270.5 -42t-270.5 42t-212.5 114t-150 167.5t-91.5 203.5t-29.5 221q0 114 29.5 221.5
t91.5 203t150 167.5t212.5 113.5t270.5 41.5zM920 0q266 0 411 194q123 164 125 414q1 245 -114 458q-119 220 -319 312q-121 56 -261 56q-267 0 -412 -194q-123 -164 -125 -414q-1 -245 114 -458q120 -220 320 -312q121 -56 261 -56z" />
    <glyph glyph-name="Ocircumflex" unicode="&#xd4;" horiz-adv-x="1679" 
d="M686 1559l109 180h90l108 -180h-10l-143 137l-142 -137h-12zM840 1464q146 0 270.5 -41.5t212 -113.5t149.5 -167.5t91.5 -203t29.5 -221.5q0 -113 -29.5 -221t-91.5 -203.5t-149.5 -167.5t-212 -114t-270.5 -42t-270.5 42t-212.5 114t-150 167.5t-91.5 203.5t-29.5 221
q0 114 29.5 221.5t91.5 203t150 167.5t212.5 113.5t270.5 41.5zM920 0q266 0 411 194q123 164 125 414q1 245 -114 458q-119 220 -319 312q-121 56 -261 56q-267 0 -412 -194q-123 -164 -125 -414q-1 -245 114 -458q120 -220 320 -312q121 -56 261 -56z" />
    <glyph glyph-name="Otilde" unicode="&#xd5;" horiz-adv-x="1679" 
d="M641 1595l-8 4q4 5 16.5 21.5t19 23.5t19 20t22.5 19.5t24 11.5t28 5q33 0 97 -40t102 -40q42 0 79 37l7 -6q-67 -84 -117 -84q-36 0 -102 35.5t-99 35.5q-45 0 -88 -43zM840 1464q146 0 270.5 -41.5t212 -113.5t149.5 -167.5t91.5 -203t29.5 -221.5q0 -113 -29.5 -221
t-91.5 -203.5t-149.5 -167.5t-212 -114t-270.5 -42t-270.5 42t-212.5 114t-150 167.5t-91.5 203.5t-29.5 221q0 114 29.5 221.5t91.5 203t150 167.5t212.5 113.5t270.5 41.5zM920 0q266 0 411 194q123 164 125 414q1 245 -114 458q-119 220 -319 312q-121 56 -261 56
q-267 0 -412 -194q-123 -164 -125 -414q-1 -245 114 -458q120 -220 320 -312q121 -56 261 -56z" />
    <glyph glyph-name="Odieresis" unicode="&#xd6;" horiz-adv-x="1679" 
d="M668 1624q0 33 20.5 51.5t48.5 18.5q29 0 49.5 -18.5t20.5 -51.5q0 -30 -21 -47.5t-49 -17.5t-48.5 17t-20.5 48zM877 1624q0 33 20 51.5t47 18.5q28 0 48 -18.5t20 -51.5q0 -31 -20 -48t-48 -17q-27 0 -47 17.5t-20 47.5zM840 1464q146 0 270.5 -41.5t212 -113.5
t149.5 -167.5t91.5 -203t29.5 -221.5q0 -113 -29.5 -221t-91.5 -203.5t-149.5 -167.5t-212 -114t-270.5 -42t-270.5 42t-212.5 114t-150 167.5t-91.5 203.5t-29.5 221q0 114 29.5 221.5t91.5 203t150 167.5t212.5 113.5t270.5 41.5zM920 0q266 0 411 194q123 164 125 414
q1 245 -114 458q-119 220 -319 312q-121 56 -261 56q-267 0 -412 -194q-123 -164 -125 -414q-1 -245 114 -458q120 -220 320 -312q121 -56 261 -56z" />
    <glyph glyph-name="multiply" unicode="&#xd7;" horiz-adv-x="671" 
d="M74 201l-11 12l259 256l-252 250l10 10l254 -248l266 262l10 -12l-264 -262l258 -258l-12 -10l-258 256z" />
    <glyph glyph-name="Oslash" unicode="&#xd8;" horiz-adv-x="1679" 
d="M840 1464q186 0 336 -67l16 35h16l-20 -39q195 -92 300 -276.5t105 -399.5q0 -113 -29.5 -221t-91.5 -203.5t-149.5 -167.5t-212 -114t-270.5 -42q-183 0 -334 66l-19 -35h-14l21 41q-132 62 -225.5 170.5t-138 237t-44.5 268.5q0 114 29.5 221.5t91.5 203t150 167.5
t212.5 113.5t270.5 41.5zM539 129l594 1184q-162 121 -371 121q-121 0 -218.5 -41.5t-161 -112.5t-103 -166t-50 -200t4.5 -217.5t53.5 -215t103 -195.5t148.5 -157zM920 0q120 0 217.5 41.5t161 112.5t103 165.5t49.5 199.5t-4 217t-52.5 215t-102.5 195t-147 157
l-596 -1182q159 -121 371 -121z" />
    <glyph glyph-name="Ugrave" unicode="&#xd9;" horiz-adv-x="1462" 
d="M541 1700l57 65l188 -223l-4 -6zM201 504v751q0 74 -38.5 119t-101.5 45h-10v15h457v-15h-10q-63 0 -101.5 -45t-38.5 -119v-747q0 -118 35.5 -211.5t95.5 -150t134 -86t157 -29.5q88 0 172 33.5t152 96t109.5 161t41.5 217.5v710q0 76 -40 123t-105 47h-6v15h315v-15h-4
q-65 0 -105 -47t-40 -123v-710q0 -133 -49 -242.5t-129.5 -178t-180 -106t-204.5 -37.5q-99 0 -188.5 33t-161 96.5t-114 166.5t-42.5 233z" />
    <glyph glyph-name="Uacute" unicode="&#xda;" horiz-adv-x="1462" 
d="M741 1536l189 223l57 -65l-239 -164zM201 504v751q0 74 -38.5 119t-101.5 45h-10v15h457v-15h-10q-63 0 -101.5 -45t-38.5 -119v-747q0 -118 35.5 -211.5t95.5 -150t134 -86t157 -29.5q88 0 172 33.5t152 96t109.5 161t41.5 217.5v710q0 76 -40 123t-105 47h-6v15h315
v-15h-4q-65 0 -105 -47t-40 -123v-710q0 -133 -49 -242.5t-129.5 -178t-180 -106t-204.5 -37.5q-99 0 -188.5 33t-161 96.5t-114 166.5t-42.5 233z" />
    <glyph glyph-name="Ucircumflex" unicode="&#xdb;" horiz-adv-x="1462" 
d="M629 1552l108 181h90l109 -181h-10l-144 138l-141 -138h-12zM201 504v751q0 74 -38.5 119t-101.5 45h-10v15h457v-15h-10q-63 0 -101.5 -45t-38.5 -119v-747q0 -118 35.5 -211.5t95.5 -150t134 -86t157 -29.5q88 0 172 33.5t152 96t109.5 161t41.5 217.5v710
q0 76 -40 123t-105 47h-6v15h315v-15h-4q-65 0 -105 -47t-40 -123v-710q0 -133 -49 -242.5t-129.5 -178t-180 -106t-204.5 -37.5q-99 0 -188.5 33t-161 96.5t-114 166.5t-42.5 233z" />
    <glyph glyph-name="Udieresis" unicode="&#xdc;" horiz-adv-x="1462" 
d="M633 1624q0 33 20.5 51.5t48.5 18.5q29 0 49.5 -18.5t20.5 -51.5q0 -30 -21 -47.5t-49 -17.5t-48.5 17t-20.5 48zM842 1624q0 33 20 51.5t47 18.5q28 0 48 -18.5t20 -51.5q0 -31 -20 -48t-48 -17q-27 0 -47 17.5t-20 47.5zM201 504v751q0 74 -38.5 119t-101.5 45h-10v15
h457v-15h-10q-63 0 -101.5 -45t-38.5 -119v-747q0 -118 35.5 -211.5t95.5 -150t134 -86t157 -29.5q88 0 172 33.5t152 96t109.5 161t41.5 217.5v710q0 76 -40 123t-105 47h-6v15h315v-15h-4q-65 0 -105 -47t-40 -123v-710q0 -133 -49 -242.5t-129.5 -178t-180 -106
t-204.5 -37.5q-99 0 -188.5 33t-161 96.5t-114 166.5t-42.5 233z" />
    <glyph glyph-name="Yacute" unicode="&#xdd;" horiz-adv-x="1300" 
d="M856 1755l57 -65l-239 -164l-6 6zM606 164v510l-385 631q-30 52 -86 83t-117 31h-4v15h457v-15h-6q-64 0 -82 -32.5t16 -86.5l361 -559l303 529q33 57 18 103t-77 46h-3v15h285v-15h-6q-50 0 -104 -38t-82 -85l-332 -577v-555q0 -68 41 -109t108 -41h2v-14h-458v14h4
q66 0 106.5 41.5t40.5 108.5z" />
    <glyph glyph-name="Thorn" unicode="&#xde;" horiz-adv-x="1148" 
d="M514 348l-152 -55v-279h152v-14h-459v14h152v1405h-152v15h459v-15h-152v-237h156q151 0 265 -33t173 -89.5t82.5 -127.5t-5.5 -151.5t-91 -158.5t-173.5 -150t-254.5 -124zM362 1167v-858l166 60q80 29 145.5 74t108 98t71.5 113t35 120t-1 118t-36.5 107.5t-72.5 87
t-107.5 59t-142.5 21.5h-166z" />
    <glyph glyph-name="germandbls" unicode="&#xdf;" horiz-adv-x="1243" 
d="M360 922l2 -922h-307v14h154v951q0 56 2 99t10 95.5t21.5 91t38 76.5t57.5 62.5t82.5 39.5t111.5 15q61 0 122 -14.5t116.5 -42.5t90 -78.5t34.5 -114.5q0 -62 -26 -114t-63.5 -84.5t-75 -58.5t-63.5 -47.5t-26 -39.5q0 -22 30 -40.5t78 -35.5t105.5 -37t115.5 -50.5
t106 -68.5t78 -98.5t30 -134.5q0 -95 -43.5 -171t-114.5 -121t-153.5 -68t-167.5 -23q-152 0 -195 71q-28 45 2 89q26 39 74 39q34 0 69 -25l-47 -129q33 -33 125 -33q50 0 102.5 30t94.5 79t69 119t27 143q0 70 -22 124.5t-57 88t-77.5 59.5t-85.5 45.5t-78 39t-57 46.5
t-22 62q0 32 20 69.5t44.5 70t44.5 87.5t20 117q0 100 -64.5 168t-159.5 68q-129 0 -161 -181q-13 -80 -11 -280v-47z" />
    <glyph glyph-name="agrave" unicode="&#xe0;" horiz-adv-x="1124" 
d="M412 1425l188 -223l-4 -6l-242 164zM834 461h2q38 0 62 -28.5t24 -74.5v-118q0 -211 61 -211q38 0 98 86l13 -6q-37 -61 -82 -91t-90 -30q-64 0 -108 55.5t-44 146.5v160q0 3 0.5 8.5t0 8.5t-1 7t-3 5.5t-6.5 1.5q-11 0 -25 -30.5t-29 -76.5t-47 -99t-74 -99t-115 -76.5
t-165 -30.5q-103 0 -168 61t-65 175q0 68 40 118t104 79.5t141.5 54t155.5 50t142 57.5t104 87.5t40 130.5q0 82 -47 138.5t-113.5 80t-144.5 23.5q-30 0 -56.5 -3.5t-55.5 -13t-49 -25.5t-37 -41t-19.5 -60t2.5 -82q7 -45 -14 -71t-54 -26q-34 0 -59 26.5t-25 74.5
q0 74 61.5 129t153.5 81.5t197 26.5q98 0 179 -23.5t135 -77.5t54 -130q0 -67 -37.5 -120t-98 -88t-133.5 -66t-146 -61.5t-133.5 -65t-98 -87t-37.5 -118.5q0 -75 47 -116.5t121 -41.5q55 0 97.5 12.5t86.5 45t80.5 97.5t65.5 162q12 45 43 72t70 27z" />
    <glyph glyph-name="aacute" unicode="&#xe1;" horiz-adv-x="1124" 
d="M684 1395l57 -66l-239 -164l-6 6zM834 461h2q38 0 62 -28.5t24 -74.5v-118q0 -211 61 -211q38 0 98 86l13 -6q-37 -61 -82 -91t-90 -30q-64 0 -108 55.5t-44 146.5v160q0 3 0.5 8.5t0 8.5t-1 7t-3 5.5t-6.5 1.5q-11 0 -25 -30.5t-29 -76.5t-47 -99t-74 -99t-115 -76.5
t-165 -30.5q-103 0 -168 61t-65 175q0 68 40 118t104 79.5t141.5 54t155.5 50t142 57.5t104 87.5t40 130.5q0 82 -47 138.5t-113.5 80t-144.5 23.5q-30 0 -56.5 -3.5t-55.5 -13t-49 -25.5t-37 -41t-19.5 -60t2.5 -82q7 -45 -14 -71t-54 -26q-34 0 -59 26.5t-25 74.5
q0 74 61.5 129t153.5 81.5t197 26.5q98 0 179 -23.5t135 -77.5t54 -130q0 -67 -37.5 -120t-98 -88t-133.5 -66t-146 -61.5t-133.5 -65t-98 -87t-37.5 -118.5q0 -75 47 -116.5t121 -41.5q55 0 97.5 12.5t86.5 45t80.5 97.5t65.5 162q12 45 43 72t70 27z" />
    <glyph glyph-name="acircumflex" unicode="&#xe2;" horiz-adv-x="1124" 
d="M516 1329h90l109 -180h-10l-144 137l-141 -137h-12zM834 461h2q38 0 62 -28.5t24 -74.5v-118q0 -211 61 -211q38 0 98 86l13 -6q-37 -61 -82 -91t-90 -30q-64 0 -108 55.5t-44 146.5v160q0 3 0.5 8.5t0 8.5t-1 7t-3 5.5t-6.5 1.5q-11 0 -25 -30.5t-29 -76.5t-47 -99
t-74 -99t-115 -76.5t-165 -30.5q-103 0 -168 61t-65 175q0 68 40 118t104 79.5t141.5 54t155.5 50t142 57.5t104 87.5t40 130.5q0 82 -47 138.5t-113.5 80t-144.5 23.5q-30 0 -56.5 -3.5t-55.5 -13t-49 -25.5t-37 -41t-19.5 -60t2.5 -82q7 -45 -14 -71t-54 -26
q-34 0 -59 26.5t-25 74.5q0 74 61.5 129t153.5 81.5t197 26.5q98 0 179 -23.5t135 -77.5t54 -130q0 -67 -37.5 -120t-98 -88t-133.5 -66t-146 -61.5t-133.5 -65t-98 -87t-37.5 -118.5q0 -75 47 -116.5t121 -41.5q55 0 97.5 12.5t86.5 45t80.5 97.5t65.5 162q12 45 43 72
t70 27z" />
    <glyph glyph-name="atilde" unicode="&#xe3;" horiz-adv-x="1124" 
d="M365 1186l-9 4q3 4 16.5 21t19 23.5t18.5 20t23 19.5t24 11t28 5q33 0 97 -40t102 -40q43 0 80 37l6 -6q-67 -84 -117 -84q-37 0 -101.5 36t-98.5 36q-45 0 -88 -43zM834 461h2q38 0 62 -28.5t24 -74.5v-118q0 -211 61 -211q38 0 98 86l13 -6q-37 -61 -82 -91t-90 -30
q-64 0 -108 55.5t-44 146.5v160q0 3 0.5 8.5t0 8.5t-1 7t-3 5.5t-6.5 1.5q-11 0 -25 -30.5t-29 -76.5t-47 -99t-74 -99t-115 -76.5t-165 -30.5q-103 0 -168 61t-65 175q0 68 40 118t104 79.5t141.5 54t155.5 50t142 57.5t104 87.5t40 130.5q0 82 -47 138.5t-113.5 80
t-144.5 23.5q-30 0 -56.5 -3.5t-55.5 -13t-49 -25.5t-37 -41t-19.5 -60t2.5 -82q7 -45 -14 -71t-54 -26q-34 0 -59 26.5t-25 74.5q0 74 61.5 129t153.5 81.5t197 26.5q98 0 179 -23.5t135 -77.5t54 -130q0 -67 -37.5 -120t-98 -88t-133.5 -66t-146 -61.5t-133.5 -65t-98 -87
t-37.5 -118.5q0 -75 47 -116.5t121 -41.5q55 0 97.5 12.5t86.5 45t80.5 97.5t65.5 162q12 45 43 72t70 27z" />
    <glyph glyph-name="adieresis" unicode="&#xe4;" horiz-adv-x="1124" 
d="M389 1214q0 33 20.5 51.5t49.5 18.5q28 0 48.5 -18.5t20.5 -51.5q0 -31 -20.5 -48t-48.5 -17t-49 17.5t-21 47.5zM598 1214q0 33 20.5 51.5t47.5 18.5q28 0 47.5 -18.5t19.5 -51.5q0 -31 -19.5 -48t-47.5 -17q-27 0 -47.5 17.5t-20.5 47.5zM834 461h2q38 0 62 -28.5
t24 -74.5v-118q0 -211 61 -211q38 0 98 86l13 -6q-37 -61 -82 -91t-90 -30q-64 0 -108 55.5t-44 146.5v160q0 3 0.5 8.5t0 8.5t-1 7t-3 5.5t-6.5 1.5q-11 0 -25 -30.5t-29 -76.5t-47 -99t-74 -99t-115 -76.5t-165 -30.5q-103 0 -168 61t-65 175q0 68 40 118t104 79.5
t141.5 54t155.5 50t142 57.5t104 87.5t40 130.5q0 82 -47 138.5t-113.5 80t-144.5 23.5q-30 0 -56.5 -3.5t-55.5 -13t-49 -25.5t-37 -41t-19.5 -60t2.5 -82q7 -45 -14 -71t-54 -26q-34 0 -59 26.5t-25 74.5q0 74 61.5 129t153.5 81.5t197 26.5q98 0 179 -23.5t135 -77.5
t54 -130q0 -67 -37.5 -120t-98 -88t-133.5 -66t-146 -61.5t-133.5 -65t-98 -87t-37.5 -118.5q0 -75 47 -116.5t121 -41.5q55 0 97.5 12.5t86.5 45t80.5 97.5t65.5 162q12 45 43 72t70 27z" />
    <glyph glyph-name="aring" unicode="&#xe5;" horiz-adv-x="1124" 
d="M565 1106q-79 0 -122.5 44.5t-43.5 106.5q0 63 43.5 108.5t122.5 45.5q77 0 118.5 -44.5t41.5 -106.5q0 -64 -41.5 -109t-118.5 -45zM565 1401q-51 0 -80.5 -44t-29.5 -97.5t29.5 -97.5t80.5 -44t79.5 44t28.5 97.5t-28.5 97.5t-79.5 44zM834 461h2q38 0 62 -28.5
t24 -74.5v-118q0 -211 61 -211q38 0 98 86l13 -6q-37 -61 -82 -91t-90 -30q-64 0 -108 55.5t-44 146.5v160q0 3 0.5 8.5t0 8.5t-1 7t-3 5.5t-6.5 1.5q-11 0 -25 -30.5t-29 -76.5t-47 -99t-74 -99t-115 -76.5t-165 -30.5q-103 0 -168 61t-65 175q0 68 40 118t104 79.5
t141.5 54t155.5 50t142 57.5t104 87.5t40 130.5q0 82 -47 138.5t-113.5 80t-144.5 23.5q-30 0 -56.5 -3.5t-55.5 -13t-49 -25.5t-37 -41t-19.5 -60t2.5 -82q7 -45 -14 -71t-54 -26q-34 0 -59 26.5t-25 74.5q0 74 61.5 129t153.5 81.5t197 26.5q98 0 179 -23.5t135 -77.5
t54 -130q0 -67 -37.5 -120t-98 -88t-133.5 -66t-146 -61.5t-133.5 -65t-98 -87t-37.5 -118.5q0 -75 47 -116.5t121 -41.5q55 0 97.5 12.5t86.5 45t80.5 97.5t65.5 162q12 45 43 72t70 27z" />
    <glyph glyph-name="ae" unicode="&#xe6;" horiz-adv-x="1742" 
d="M799 782q0 82 -47 138.5t-113.5 80t-144.5 23.5q-86 0 -155.5 -28t-92.5 -76l82 -117q0 -46 -30.5 -72t-70.5 -26q-41 0 -70.5 25.5t-29.5 72.5q0 74 61.5 129t153.5 81.5t197 26.5q121 0 217 -38t133 -111q69 73 160.5 110t189.5 37q107 0 198.5 -41.5t150.5 -128
t59 -202.5q0 -63 -23.5 -119.5t-69 -102.5t-120.5 -73t-170 -27q-118 0 -189 75.5t-84 184.5l13 6q11 -105 79.5 -178.5t182.5 -73.5q81 0 140.5 44.5t87.5 113.5t28 150q0 159 -98 256.5t-226 97.5q-59 0 -111.5 -23.5t-95 -69.5t-67.5 -123.5t-25 -176.5
q0 -106 32.5 -213.5t88.5 -195.5t141 -143t182 -55q65 0 121 29t90 72t54 84t24 74l15 -5q-79 -294 -385 -294q-167 0 -284 83t-173 220q-24 -81 -104.5 -150.5t-183.5 -108t-200 -38.5q-109 0 -177 54t-68 165q0 62 32.5 109t87 76t121 52t138.5 44.5t135.5 46t115.5 63.5
t76 90q3 11 17 49q4 28 4 47zM793 311q-35 103 -35 209q0 26 4 76q-44 -26 -109.5 -55t-120.5 -50t-114 -51t-100.5 -60.5t-68 -76t-26.5 -100.5q0 -76 54 -115t137 -39q82 0 165 32t144.5 94t69.5 136z" />
    <glyph glyph-name="ccedilla" unicode="&#xe7;" horiz-adv-x="1026" 
d="M588 -20q-24 0 -70 4l-55 -127q125 -4 171 -76q35 -53 7 -106q-31 -58 -111 -62h-10q-43 0 -79.5 15.5t-52.5 31.5l-15 16l39 93q0 -148 92 -148q47 0 72 51q28 56 2 109q-31 67 -129 67l45 140q-99 16 -178.5 67.5t-129 125t-76 160.5t-26.5 179q0 79 19 153.5t58.5 141
t95.5 116t136 78.5t174 29q142 0 244 -64t102 -159q0 -47 -25.5 -71.5t-60.5 -24.5q-37 0 -58 24.5t-7 63.5q15 39 16 71t-10 54t-30.5 39t-42 27t-48.5 16t-46.5 8t-39.5 2q-195 0 -282 -160q-75 -140 -45 -343q29 -196 138 -337q131 -160 298 -164q65 0 121 29t89.5 72
t53.5 84t24 74l15 -5q-34 -144 -124.5 -219t-260.5 -75z" />
    <glyph glyph-name="egrave" unicode="&#xe8;" horiz-adv-x="1067" 
d="M467 1368l188 -223l-4 -6l-241 164zM586 -20q-121 0 -219.5 46.5t-159 123.5t-93 172t-32.5 198q0 128 42 229.5t111.5 163t153.5 93.5t174 32q107 0 198.5 -41.5t150.5 -128t59 -202.5q0 -63 -23.5 -119.5t-69 -102.5t-120.5 -73t-170 -27q-118 0 -189 75.5t-84 184.5
l13 6q11 -105 79.5 -178.5t182.5 -73.5q81 0 140.5 44.5t87.5 113.5t28 150q0 159 -98 256.5t-226 97.5q-59 0 -111.5 -23.5t-95 -69.5t-67.5 -123.5t-25 -176.5q0 -106 32.5 -213.5t89 -195.5t141.5 -143t182 -55q65 0 121 29t89.5 72t53.5 84t24 74l15 -5
q-79 -294 -385 -294z" />
    <glyph glyph-name="eacute" unicode="&#xe9;" horiz-adv-x="1067" 
d="M598 1368l57 -65l-239 -164l-6 6zM586 -20q-121 0 -219.5 46.5t-159 123.5t-93 172t-32.5 198q0 128 42 229.5t111.5 163t153.5 93.5t174 32q107 0 198.5 -41.5t150.5 -128t59 -202.5q0 -63 -23.5 -119.5t-69 -102.5t-120.5 -73t-170 -27q-118 0 -189 75.5t-84 184.5
l13 6q11 -105 79.5 -178.5t182.5 -73.5q81 0 140.5 44.5t87.5 113.5t28 150q0 159 -98 256.5t-226 97.5q-59 0 -111.5 -23.5t-95 -69.5t-67.5 -123.5t-25 -176.5q0 -106 32.5 -213.5t89 -195.5t141.5 -143t182 -55q65 0 121 29t89.5 72t53.5 84t24 74l15 -5
q-79 -294 -385 -294z" />
    <glyph glyph-name="ecircumflex" unicode="&#xea;" horiz-adv-x="1067" 
d="M487 1329h91l108 -180h-10l-144 137l-141 -137h-12zM586 -20q-121 0 -219.5 46.5t-159 123.5t-93 172t-32.5 198q0 128 42 229.5t111.5 163t153.5 93.5t174 32q107 0 198.5 -41.5t150.5 -128t59 -202.5q0 -63 -23.5 -119.5t-69 -102.5t-120.5 -73t-170 -27
q-118 0 -189 75.5t-84 184.5l13 6q11 -105 79.5 -178.5t182.5 -73.5q81 0 140.5 44.5t87.5 113.5t28 150q0 159 -98 256.5t-226 97.5q-59 0 -111.5 -23.5t-95 -69.5t-67.5 -123.5t-25 -176.5q0 -106 32.5 -213.5t89 -195.5t141.5 -143t182 -55q65 0 121 29t89.5 72t53.5 84
t24 74l15 -5q-79 -294 -385 -294z" />
    <glyph glyph-name="edieresis" unicode="&#xeb;" horiz-adv-x="1067" 
d="M360 1214q0 33 20.5 51.5t49.5 18.5t49.5 -18.5t20.5 -51.5q0 -30 -21 -47.5t-49 -17.5t-49 17.5t-21 47.5zM569 1214q0 33 20.5 51.5t47.5 18.5q28 0 48 -18.5t20 -51.5q0 -31 -20 -48t-48 -17q-27 0 -47.5 17.5t-20.5 47.5zM586 -20q-121 0 -219.5 46.5t-159 123.5
t-93 172t-32.5 198q0 128 42 229.5t111.5 163t153.5 93.5t174 32q107 0 198.5 -41.5t150.5 -128t59 -202.5q0 -63 -23.5 -119.5t-69 -102.5t-120.5 -73t-170 -27q-118 0 -189 75.5t-84 184.5l13 6q11 -105 79.5 -178.5t182.5 -73.5q81 0 140.5 44.5t87.5 113.5t28 150
q0 159 -98 256.5t-226 97.5q-59 0 -111.5 -23.5t-95 -69.5t-67.5 -123.5t-25 -176.5q0 -106 32.5 -213.5t89 -195.5t141.5 -143t182 -55q65 0 121 29t89.5 72t53.5 84t24 74l15 -5q-79 -294 -385 -294z" />
    <glyph glyph-name="igrave" unicode="&#xec;" horiz-adv-x="555" 
d="M86 1325l57 66l189 -224l-4 -6zM86 1010v14h268v-1010h150v-14h-453v14h152v996h-117z" />
    <glyph glyph-name="iacute" unicode="&#xed;" horiz-adv-x="555" 
d="M205 1167l188 224l58 -66l-240 -164zM86 1010v14h268v-1010h150v-14h-453v14h152v996h-117z" />
    <glyph glyph-name="icircumflex" unicode="&#xee;" horiz-adv-x="555" 
d="M123 1149l108 180h91l108 -180h-10l-144 137l-141 -137h-12zM86 1010v14h268v-1010h150v-14h-453v14h152v996h-117z" />
    <glyph glyph-name="idieresis" unicode="&#xef;" horiz-adv-x="555" 
d="M104 1214q0 33 20.5 51.5t49.5 18.5t49.5 -18.5t20.5 -51.5q0 -30 -21 -47.5t-49 -17.5t-49 17.5t-21 47.5zM313 1214q0 33 20.5 51.5t47.5 18.5q28 0 48 -18.5t20 -51.5q0 -31 -20 -48t-48 -17q-27 0 -47.5 17.5t-20.5 47.5zM86 1010v14h268v-1010h150v-14h-453v14h152
v996h-117z" />
    <glyph glyph-name="eth" unicode="&#xf0;" horiz-adv-x="1239" 
 />
    <glyph glyph-name="ntilde" unicode="&#xf1;" horiz-adv-x="1239" 
d="M422 1186l-8 4q3 4 16.5 21t19 23.5t18.5 20t23 19.5t24 11t28 5q33 0 96.5 -40t101.5 -40q43 0 80 37l6 -6q-67 -84 -116 -84q-37 0 -102 36t-99 36q-45 0 -88 -43zM354 129q0 -53 31 -84t84 -31h35v-14h-453v14h37q52 0 83.5 31t31.5 84v766q0 52 -31 78.5t-82 17.5h-4
v15l268 41v-134q56 66 140 100t176 34q138 0 239 -67t101 -179q0 -60 -27 -147t-59 -161.5t-59 -162t-27 -148.5q0 -82 31 -125t83 -43q61 0 126.5 57t113.5 162l12 -8q-61 -128 -146 -192t-169 -64q-86 0 -144 59t-59 154q1 50 29 136.5t61 166.5t60.5 175t27.5 161
q0 89 -71.5 145t-171.5 56q-73 0 -143.5 -32t-123.5 -97v-764z" />
    <glyph glyph-name="ograve" unicode="&#xf2;" 
d="M520 1368l189 -223l-4 -6l-242 164zM586 -31q-122 0 -220 46.5t-158.5 122t-93.5 172.5t-33 198t33 198t93.5 172.5t158.5 122t220 46.5q121 0 219 -46.5t158.5 -122t93 -172.5t32.5 -198t-32.5 -198t-93 -172.5t-158.5 -122t-219 -46.5zM516 1018q-188 0 -266 -161
q-70 -141 -34 -350q35 -201 147 -345q130 -161 292 -164q188 0 266 161q70 141 33 350q-35 201 -147 345q-130 161 -291 164z" />
    <glyph glyph-name="oacute" unicode="&#xf3;" 
d="M651 1368l58 -65l-240 -164l-6 6zM586 -31q-122 0 -220 46.5t-158.5 122t-93.5 172.5t-33 198t33 198t93.5 172.5t158.5 122t220 46.5q121 0 219 -46.5t158.5 -122t93 -172.5t32.5 -198t-32.5 -198t-93 -172.5t-158.5 -122t-219 -46.5zM516 1018q-188 0 -266 -161
q-70 -141 -34 -350q35 -201 147 -345q130 -161 292 -164q188 0 266 161q70 141 33 350q-35 201 -147 345q-130 161 -291 164z" />
    <glyph glyph-name="ocircumflex" unicode="&#xf4;" 
d="M541 1329h90l108 -180h-10l-143 137l-142 -137h-12zM586 -31q-122 0 -220 46.5t-158.5 122t-93.5 172.5t-33 198t33 198t93.5 172.5t158.5 122t220 46.5q121 0 219 -46.5t158.5 -122t93 -172.5t32.5 -198t-32.5 -198t-93 -172.5t-158.5 -122t-219 -46.5zM516 1018
q-188 0 -266 -161q-70 -141 -34 -350q35 -201 147 -345q130 -161 292 -164q188 0 266 161q70 141 33 350q-35 201 -147 345q-130 161 -291 164z" />
    <glyph glyph-name="otilde" unicode="&#xf5;" 
d="M387 1186l-8 4q3 4 16.5 21t19 23.5t18.5 20t23 19.5t24 11t28 5q33 0 97 -40t102 -40q42 0 79 37l7 -6q-67 -84 -117 -84q-36 0 -101.5 36t-99.5 36q-45 0 -88 -43zM586 -31q-122 0 -220 46.5t-158.5 122t-93.5 172.5t-33 198t33 198t93.5 172.5t158.5 122t220 46.5
q121 0 219 -46.5t158.5 -122t93 -172.5t32.5 -198t-32.5 -198t-93 -172.5t-158.5 -122t-219 -46.5zM516 1018q-188 0 -266 -161q-70 -141 -34 -350q35 -201 147 -345q130 -161 292 -164q188 0 266 161q70 141 33 350q-35 201 -147 345q-130 161 -291 164z" />
    <glyph glyph-name="odieresis" unicode="&#xf6;" 
d="M414 1214q0 33 20.5 51.5t48.5 18.5q29 0 49.5 -18.5t20.5 -51.5q0 -30 -21 -47.5t-49 -17.5t-48.5 17t-20.5 48zM623 1214q0 33 20 51.5t47 18.5q28 0 48 -18.5t20 -51.5q0 -31 -20 -48t-48 -17q-27 0 -47 17.5t-20 47.5zM586 -31q-122 0 -220 46.5t-158.5 122
t-93.5 172.5t-33 198t33 198t93.5 172.5t158.5 122t220 46.5q121 0 219 -46.5t158.5 -122t93 -172.5t32.5 -198t-32.5 -198t-93 -172.5t-158.5 -122t-219 -46.5zM516 1018q-188 0 -266 -161q-70 -141 -34 -350q35 -201 147 -345q130 -161 292 -164q188 0 266 161
q70 141 33 350q-35 201 -147 345q-130 161 -291 164z" />
    <glyph glyph-name="divide" unicode="&#xf7;" horiz-adv-x="821" 
d="M315 829q0 42 27.5 66.5t63.5 24.5q35 0 61.5 -24.5t26.5 -66.5q0 -43 -27 -67.5t-64 -24.5q-35 0 -61.5 24.5t-26.5 67.5zM780 498h-753v14h753v-14zM315 170q0 42 27.5 66t63.5 24q35 0 61.5 -24t26.5 -66q0 -43 -27 -67.5t-64 -24.5q-35 0 -61.5 24.5t-26.5 67.5z" />
    <glyph glyph-name="oslash" unicode="&#xf8;" 
d="M586 -31q-113 0 -197 37l-98 -194h-15l101 198q-83 36 -145 101.5t-97 144.5t-46.5 169.5t1 178t51.5 168t98.5 141.5t149.5 97.5t197 36.5q156 0 272 -76l137 272h17l-142 -280q67 -46 115.5 -115t73.5 -147t29 -163.5t-13 -166t-58 -154t-100 -128.5t-144.5 -87.5
t-186.5 -32.5zM516 1018q-78 0 -138 -29t-96 -78.5t-56 -115.5t-21.5 -140t12.5 -152.5t42 -151.5t69.5 -139.5t91.5 -113.5l383 762q-128 158 -287 158zM813 848l-383 -758q107 -92 225 -92q95 0 163 43t101.5 113t43.5 160t-6 184t-53 186t-91 164z" />
    <glyph glyph-name="ugrave" unicode="&#xf9;" horiz-adv-x="1200" 
d="M444 1368l189 -223l-4 -6l-242 164zM846 190v707q0 51 -31 82t-82 31h-4v14h268v-784q0 -207 64 -207q38 0 94 82l8 -6q-71 -119 -168 -119q-60 0 -102.5 49t-46.5 133q-47 -102 -147 -154.5t-216 -52.5q-138 0 -238 67t-100 179q0 61 26.5 148t58.5 161.5t58.5 162
t26.5 148.5q0 82 -31 125t-83 43q-62 0 -127 -59l-11 10q96 92 203 92q87 0 144 -58t57 -153q0 -51 -27.5 -137.5t-60.5 -166t-60.5 -174.5t-27.5 -160q0 -91 70 -146t171 -55q92 0 176.5 49.5t137.5 148.5z" />
    <glyph glyph-name="uacute" unicode="&#xfa;" horiz-adv-x="1200" 
d="M743 1368l58 -65l-240 -164l-6 6zM846 190v707q0 51 -31 82t-82 31h-4v14h268v-784q0 -207 64 -207q38 0 94 82l8 -6q-71 -119 -168 -119q-60 0 -102.5 49t-46.5 133q-47 -102 -147 -154.5t-216 -52.5q-138 0 -238 67t-100 179q0 61 26.5 148t58.5 161.5t58.5 162
t26.5 148.5q0 82 -31 125t-83 43q-62 0 -127 -59l-11 10q96 92 203 92q87 0 144 -58t57 -153q0 -51 -27.5 -137.5t-60.5 -166t-60.5 -174.5t-27.5 -160q0 -91 70 -146t171 -55q92 0 176.5 49.5t137.5 148.5z" />
    <glyph glyph-name="ucircumflex" unicode="&#xfb;" horiz-adv-x="1200" 
d="M555 1329h90l109 -180h-11l-143 137l-141 -137h-13zM846 190v707q0 51 -31 82t-82 31h-4v14h268v-784q0 -207 64 -207q38 0 94 82l8 -6q-71 -119 -168 -119q-60 0 -102.5 49t-46.5 133q-47 -102 -147 -154.5t-216 -52.5q-138 0 -238 67t-100 179q0 61 26.5 148
t58.5 161.5t58.5 162t26.5 148.5q0 82 -31 125t-83 43q-62 0 -127 -59l-11 10q96 92 203 92q87 0 144 -58t57 -153q0 -51 -27.5 -137.5t-60.5 -166t-60.5 -174.5t-27.5 -160q0 -91 70 -146t171 -55q92 0 176.5 49.5t137.5 148.5z" />
    <glyph glyph-name="udieresis" unicode="&#xfc;" horiz-adv-x="1200" 
d="M428 1214q0 33 20.5 51.5t49.5 18.5q28 0 48.5 -18.5t20.5 -51.5q0 -31 -20.5 -48t-48.5 -17t-49 17.5t-21 47.5zM637 1214q0 33 20.5 51.5t47.5 18.5q28 0 47.5 -18.5t19.5 -51.5q0 -31 -19.5 -48t-47.5 -17q-27 0 -47.5 17.5t-20.5 47.5zM846 190v707q0 51 -31 82
t-82 31h-4v14h268v-784q0 -207 64 -207q38 0 94 82l8 -6q-71 -119 -168 -119q-60 0 -102.5 49t-46.5 133q-47 -102 -147 -154.5t-216 -52.5q-138 0 -238 67t-100 179q0 61 26.5 148t58.5 161.5t58.5 162t26.5 148.5q0 82 -31 125t-83 43q-62 0 -127 -59l-11 10q96 92 203 92
q87 0 144 -58t57 -153q0 -51 -27.5 -137.5t-60.5 -166t-60.5 -174.5t-27.5 -160q0 -91 70 -146t171 -55q92 0 176.5 49.5t137.5 148.5z" />
    <glyph glyph-name="yacute" unicode="&#xfd;" horiz-adv-x="1120" 
d="M743 1366l58 -66l-240 -163l-6 6zM983 899q0 -90 -94.5 -327t-224.5 -463q-11 -21 -34 -58.5t-30 -50.5h-2q-107 -172 -210.5 -274.5t-188.5 -102.5q-71 0 -101.5 51.5t-4 102.5t94.5 51q22 0 42 -23t41.5 -46t47.5 -23q41 0 108.5 69.5t141.5 180.5l-376 907
q-22 52 -69.5 84.5t-103.5 32.5h-10v14h457v-14h-27q-57 0 -78.5 -32t0.5 -85l302 -750q124 222 214.5 442t90.5 314q0 49 -36 82t-81 33q-42 0 -72 -36.5t-30 -109.5q0 -35 -19.5 -54t-46.5 -19q-28 0 -49 20t-21 55q0 71 66.5 117.5t146.5 46.5q67 0 111.5 -34t44.5 -101z
" />
    <glyph glyph-name="thorn" unicode="&#xfe;" horiz-adv-x="1226" 
d="M90 1227v14h268v-422q50 105 133.5 166.5t194.5 61.5q110 0 199 -46t144.5 -122.5t85.5 -171.5t30 -197q0 -80 -18 -155.5t-55.5 -142.5t-91 -117t-129.5 -79.5t-165 -29.5q-112 0 -195 58.5t-133 160.5v-486h150v-14h-453v14h152v1508h-117zM700 0q157 0 238 157
q73 144 56.5 353t-112.5 351q-102 149 -253 149q-70 0 -123.5 -35t-85 -94.5t-47 -132.5t-15.5 -156q0 -106 22.5 -209.5t63.5 -189.5t108 -139.5t148 -53.5z" />
    <glyph glyph-name="ydieresis" unicode="&#xff;" horiz-adv-x="1120" 
d="M387 1214q0 33 20.5 51.5t49.5 18.5q28 0 48.5 -18.5t20.5 -51.5q0 -31 -20.5 -48t-48.5 -17t-49 17.5t-21 47.5zM596 1214q0 33 20.5 51.5t47.5 18.5q28 0 47.5 -18.5t19.5 -51.5q0 -31 -19.5 -48t-47.5 -17q-27 0 -47.5 17.5t-20.5 47.5zM983 899q0 -90 -94.5 -327
t-224.5 -463q-11 -21 -34 -58.5t-30 -50.5h-2q-107 -172 -210.5 -274.5t-188.5 -102.5q-71 0 -101.5 51.5t-4 102.5t94.5 51q22 0 42 -23t41.5 -46t47.5 -23q41 0 108.5 69.5t141.5 180.5l-376 907q-22 52 -69.5 84.5t-103.5 32.5h-10v14h457v-14h-27q-57 0 -78.5 -32
t0.5 -85l302 -750q124 222 214.5 442t90.5 314q0 49 -36 82t-81 33q-42 0 -72 -36.5t-30 -109.5q0 -35 -19.5 -54t-46.5 -19q-28 0 -49 20t-21 55q0 71 66.5 117.5t146.5 46.5q67 0 111.5 -34t44.5 -101z" />
    <glyph glyph-name="Dcroat" unicode="&#x110;" horiz-adv-x="1413" 
d="M55 14h27q57 0 91 41t34 107v536h-254v15h254v559q0 66 -34 106.5t-91 40.5h-27v15h539q153 -1 289 -56.5t234 -150t155 -227.5t57 -283q0 -201 -97 -365.5t-265.5 -258t-372.5 -93.5h-539v14zM362 698v-684h222q164 0 299.5 101t209.5 261.5t74 340.5q0 107 -28 211
t-80.5 192t-123 155.5t-161.5 105.5t-190 38h-222v-706h224v-15h-224z" />
    <glyph glyph-name="dcroat" unicode="&#x111;" horiz-adv-x="1222" 
d="M541 1047q248 0 329 -275v541h-227v14h227v59q0 51 -30.5 77.5t-81.5 17.5h-4v14l268 41v-209h254v-14h-254v-1184q0 -52 31 -83.5t82 -31.5h36v-14h-301v584q-4 80 -22 153t-50 135.5t-83.5 100t-116.5 37.5q-158 0 -262 -163q-93 -146 -106 -354q-12 -209 65 -348
q81 -145 231 -145q88 0 148.5 41t80.5 101.5t4 131t-69 127.5l10 11q54 -52 73 -126t2.5 -140t-78.5 -113t-156 -47q-89 0 -165 29.5t-129.5 79.5t-91 117t-55.5 142.5t-18 155.5q0 102 30 197t85.5 171.5t144.5 122.5t199 46z" />
    <glyph glyph-name="dotlessi" unicode="&#x131;" horiz-adv-x="555" 
d="M86 1010v14h268v-1010h150v-14h-453v14h152v996h-117z" />
    <glyph glyph-name="Lslash" unicode="&#x141;" horiz-adv-x="1161" 
d="M510 1419q-66 0 -107 -40.5t-41 -106.5v-604l273 84l4 -15l-277 -84v-639h463q199 0 286 259q2 6 3 8q2 6 16 6l-69 -287h-1006v14h4q66 0 107 41t41 107v444l-209 -65l-4 14l213 66v651q0 66 -41 106.5t-107 40.5h-4v15h459v-15h-4z" />
    <glyph glyph-name="lslash" unicode="&#x142;" horiz-adv-x="557" 
d="M356 633v-504q0 -52 31 -83.5t82 -31.5h37v-14h-453v14h37q51 0 83 31.5t32 83.5v434l-230 -102l-6 14l236 105v806q0 51 -31 77.5t-82 17.5h-4v14l268 41v-889l224 103l6 -15z" />
    <glyph glyph-name="OE" unicode="&#x152;" horiz-adv-x="2009" 
d="M842 1434h975l67 -287q-14 0 -16 6q-28 78 -51 116q-89 150 -238 150h-416v-696h377q41 0 74.5 13t53 31t35.5 44.5t22 45t12.5 41.5t7.5 26t4 4.5t5 1.5h3q-12 -133 -12 -217t12 -244q-10 0 -12 8q-1 4 -2 11q-6 32 -10.5 52t-19 56t-34.5 57.5t-56 38.5t-83 17h-377
v-695h510q199 0 286 259q2 6 3 8q2 6 16 6l-69 -287h-1067q-147 0 -271 39t-212 106t-150 158.5t-91.5 196t-29.5 217.5q0 114 29.5 218.5t91.5 195.5t150 158.5t212 106t271 38.5zM844 14h16q66 0 107 41t41 107v1110q0 66 -41 106.5t-107 40.5h-22q-131 0 -240.5 -48
t-180 -129.5t-119.5 -187t-59 -222t1 -232.5t61 -221.5t121.5 -187t181 -129.5t240.5 -48z" />
    <glyph glyph-name="oe" unicode="&#x153;" horiz-adv-x="1941" 
d="M586 -31q-122 0 -220 46.5t-158.5 122t-93.5 172.5t-33 198t33 198t93.5 172.5t158.5 122t220 46.5q151 0 261.5 -68.5t172.5 -183.5q63 119 177 181t243 62q107 0 197.5 -41.5t149 -128t58.5 -202.5q0 -63 -23.5 -119.5t-69 -102.5t-120.5 -73t-170 -27
q-118 0 -188.5 75t-83.5 185l12 6q11 -105 79.5 -178.5t182.5 -73.5q81 0 140.5 44.5t87.5 113.5t28 150q0 159 -97.5 256.5t-225.5 97.5q-59 0 -111.5 -23.5t-95 -69.5t-67.5 -123.5t-25 -176.5q0 -106 32.5 -213.5t88.5 -195.5t141 -143t182 -55q65 0 121 29t90 72t54 84
t24 74l14 -5q-79 -294 -385 -294q-151 0 -261.5 69t-172.5 184q-62 -121 -173.5 -192.5t-266.5 -71.5zM516 1018q-188 0 -266 -161q-70 -141 -34 -350q35 -201 147 -345q130 -161 292 -164q111 0 185 59t103 150t24 205q-8 34 -11 84q-21 133 -80 250.5t-154.5 194.5
t-205.5 77z" />
    <glyph glyph-name="Scaron" unicode="&#x160;" horiz-adv-x="1228" 
d="M659 1563h-90l-108 180h12l141 -137l144 137h10zM145 1083q0 91 39 163t105 115.5t147 66t170 22.5q123 0 230 -38.5t178 -118.5t71 -187q0 -67 -32 -103t-76 -36q-37 0 -63.5 25t-26.5 67q0 35 15.5 59.5t33.5 35t33.5 25t15.5 31.5q0 66 -57 118t-144.5 79t-185.5 27
q-73 0 -138 -16.5t-118.5 -49t-85 -87.5t-31.5 -126q0 -63 31.5 -114.5t84.5 -89t122 -70t145.5 -61.5t153 -59.5t145.5 -68.5t122 -83.5t84.5 -110t31.5 -142.5q0 -75 -28.5 -137.5t-76 -105t-112 -72.5t-136 -43.5t-147.5 -13.5q-100 0 -192 28.5t-144 62.5t-95.5 62.5
t-57.5 28.5q-31 0 -51.5 -58.5t-22.5 -107.5h-12l67 483l13 2q8 -128 52.5 -225t112.5 -152t146.5 -81.5t165.5 -26.5q109 0 205.5 37t157.5 106.5t61 155.5q0 61 -31 111.5t-83.5 86.5t-120.5 67.5t-143 60t-150 58t-143 67t-120.5 82.5t-83.5 109t-31 142z" />
    <glyph glyph-name="scaron" unicode="&#x161;" horiz-adv-x="989" 
d="M539 1153h-90l-109 180h12l142 -137l143 137h10zM905 285q0 -64 -24 -116.5t-62.5 -85.5t-90 -55.5t-103 -32t-103.5 -9.5q-58 0 -108.5 14.5t-85 34.5t-62.5 40.5t-51.5 35t-40.5 14.5q-33 0 -55.5 -48.5t-24.5 -92.5h-12l57 385l13 2q8 -93 43.5 -166t87.5 -116.5
t112.5 -66t124.5 -22.5q116 0 207.5 67t91.5 156q0 51 -38.5 90t-100.5 65t-137 49t-150 50t-137 61.5t-100.5 90t-38.5 127.5t30.5 128t82.5 89t115 50t134 17q99 0 186 -29.5t144 -89t57 -137.5q0 -43 -29.5 -67.5t-68.5 -24.5q-37 0 -58 24.5t-5 67.5q21 55 17 96
t-22.5 69t-54 45t-77 24.5t-91.5 7.5q-73 0 -134 -20t-102.5 -68t-41.5 -117q0 -55 39 -96.5t101 -68.5t137.5 -50.5t151 -50.5t137.5 -60t101 -86.5t39 -123.5z" />
    <glyph glyph-name="Ydieresis" unicode="&#x178;" horiz-adv-x="1300" 
d="M520 1624q0 33 20.5 51.5t49.5 18.5q28 0 48.5 -18.5t20.5 -51.5q0 -31 -20.5 -48t-48.5 -17t-49 17.5t-21 47.5zM729 1624q0 33 20.5 51.5t47.5 18.5q28 0 47.5 -18.5t19.5 -51.5q0 -31 -19.5 -48t-47.5 -17q-27 0 -47.5 17.5t-20.5 47.5zM606 164v510l-385 631
q-30 52 -86 83t-117 31h-4v15h457v-15h-6q-64 0 -82 -32.5t16 -86.5l361 -559l303 529q33 57 18 103t-77 46h-3v15h285v-15h-6q-50 0 -104 -38t-82 -85l-332 -577v-555q0 -68 41 -109t108 -41h2v-14h-458v14h4q66 0 106.5 41.5t40.5 108.5z" />
    <glyph glyph-name="Zcaron" unicode="&#x17d;" 
d="M739 1743l-108 -180h-90l-109 180h12l142 -137l143 137h10zM131 1147l68 287h911l-879 -1420h572q199 0 286 259q2 6 3 8q2 6 16 6l-70 -287h-997l885 1419h-490q-41 0 -78 -12.5t-62.5 -28.5t-50.5 -45t-38 -48t-28 -51.5t-18 -41t-11 -31.5q-2 -6 -3 -8q-2 -6 -16 -6z
" />
    <glyph glyph-name="zcaron" unicode="&#x17e;" horiz-adv-x="952" 
d="M520 1153h-90l-108 180h12l141 -137l143 137h11zM815 0h-754l619 1010h-258q-62 0 -116 -25.5t-87 -57.5t-61 -76.5t-37.5 -66t-16.5 -41.5q-1 -3 -4.5 -4.5t-6.5 -1.5h-3l70 287h704l-614 -1010h291q63 0 118.5 25t90.5 59t62.5 75.5t39 66.5t16.5 41q2 6 17 6z" />
    <glyph glyph-name="florin" unicode="&#x192;" horiz-adv-x="686" 
d="M358 1010v-885q0 -50 26 -80.5t69 -30.5h51v-14h-453v14h62q43 0 68.5 30.5t25.5 80.5v885h-152l2 14h150v55q0 105 32.5 187t85 129.5t113 71.5t123.5 24q98 0 156.5 -49.5t58.5 -108.5q0 -40 -23 -63t-53 -23t-50.5 22.5t-20.5 61.5q0 60 -31.5 96.5t-75.5 36.5
q-65 0 -114.5 -76.5t-49.5 -222.5v-141h273v-14h-273z" />
    <glyph glyph-name="circumflex" unicode="&#x2c6;" horiz-adv-x="389" 
d="M41 1149l109 180h90l108 -180h-10l-143 137l-142 -137h-12z" />
    <glyph glyph-name="caron" unicode="&#x2c7;" horiz-adv-x="389" 
d="M348 1333l-108 -180h-90l-109 180h12l142 -137l143 137h10z" />
    <glyph glyph-name="breve" unicode="&#x2d8;" horiz-adv-x="522" 
 />
    <glyph glyph-name="dotaccent" unicode="&#x2d9;" horiz-adv-x="522" 
 />
    <glyph glyph-name="ring" unicode="&#x2da;" horiz-adv-x="397" 
d="M201 1106q-79 0 -122.5 44.5t-43.5 106.5q0 63 43.5 108.5t122.5 45.5q77 0 118 -44.5t41 -106.5q0 -64 -41 -109t-118 -45zM201 1401q-51 0 -80.5 -44t-29.5 -97.5t29.5 -97.5t80.5 -44t79.5 44t28.5 97.5t-28.5 97.5t-79.5 44z" />
    <glyph glyph-name="ogonek" unicode="&#x2db;" horiz-adv-x="522" 
 />
    <glyph glyph-name="tilde" unicode="&#x2dc;" horiz-adv-x="522" 
d="M63 1186l-8 4q3 4 16.5 21t19 23.5t18.5 20t23 19.5t24 11t28 5q33 0 97 -40t102 -40q43 0 80 37l6 -6q-67 -84 -117 -84q-36 0 -101.5 36t-98.5 36q-46 0 -89 -43z" />
    <glyph glyph-name="hungarumlaut" unicode="&#x2dd;" horiz-adv-x="618" 
d="M31 1145l188 223l57 -65l-239 -164zM340 1145l188 223l58 -65l-240 -164z" />
    <glyph glyph-name="uni03BC" unicode="&#x3bc;" horiz-adv-x="1275" 
 />
    <glyph glyph-name="endash" unicode="&#x2013;" horiz-adv-x="751" 
d="M41 598v14h670v-14h-670z" />
    <glyph glyph-name="emdash" unicode="&#x2014;" horiz-adv-x="1282" 
d="M41 596v14h1198v-14h-1198z" />
    <glyph glyph-name="quoteleft" unicode="&#x2018;" horiz-adv-x="354" 
d="M258 1231q0 -42 -27 -66t-63 -24q-35 0 -61.5 24t-26.5 66q0 70 62.5 132.5t133.5 78.5l5 -8q-37 -12 -72.5 -41.5t-52.5 -71.5q4 2 14 2q35 0 61.5 -24.5t26.5 -67.5z" />
    <glyph glyph-name="quoteright" unicode="&#x2019;" horiz-adv-x="354" 
d="M102 1364q0 42 27.5 66t63.5 24q35 0 61.5 -24t26.5 -66q0 -69 -62.5 -130.5t-134.5 -80.5l-4 8q37 12 72.5 41.5t54.5 71.5q-6 -2 -17 -2q-35 0 -61.5 24.5t-26.5 67.5z" />
    <glyph glyph-name="quotesinglbase" unicode="&#x201a;" horiz-adv-x="321" 
d="M72 74q0 42 27 66t63 24q35 0 61.5 -24t26.5 -66q0 -70 -63 -132.5t-134 -78.5l-4 8q37 12 72.5 41.5t54.5 71.5q-6 -2 -16 -2q-35 0 -61.5 24.5t-26.5 67.5z" />
    <glyph glyph-name="quotedblleft" unicode="&#x201c;" horiz-adv-x="585" 
d="M258 1231q0 -42 -27 -66t-63 -24q-35 0 -61.5 24t-26.5 66q0 70 62.5 132.5t133.5 78.5l5 -8q-37 -12 -72.5 -41.5t-52.5 -71.5q4 2 14 2q35 0 61.5 -24.5t26.5 -67.5zM496 1231q0 -42 -27 -66t-63 -24q-35 0 -62 24t-27 66q0 70 63 132.5t134 78.5l4 -8
q-37 -12 -72.5 -41.5t-52.5 -71.5q4 2 15 2q35 0 61.5 -24.5t26.5 -67.5z" />
    <glyph glyph-name="quotedblright" unicode="&#x201d;" horiz-adv-x="575" 
d="M328 1358q0 42 27 66t63 24q35 0 61.5 -24t26.5 -66q0 -69 -62.5 -130.5t-134.5 -80.5l-4 8q37 12 72.5 41.5t54.5 71.5q-6 -2 -16 -2q-35 0 -61.5 24.5t-26.5 67.5zM90 1358q0 42 27 66t63 24q35 0 61.5 -24t26.5 -66q0 -69 -62 -130.5t-134 -80.5l-4 8q37 12 72.5 41.5
t54.5 71.5q-6 -2 -17 -2q-35 0 -61.5 24.5t-26.5 67.5z" />
    <glyph glyph-name="quotedblbase" unicode="&#x201e;" horiz-adv-x="557" 
d="M72 74q0 42 27 66t63 24q35 0 61.5 -24t26.5 -66q0 -70 -63 -132.5t-134 -78.5l-4 8q37 12 72.5 41.5t54.5 71.5q-6 -2 -16 -2q-35 0 -61.5 24.5t-26.5 67.5zM315 74q0 42 27.5 66t63.5 24q35 0 61.5 -24t26.5 -66q0 -70 -63 -132.5t-134 -78.5l-4 8q37 12 72.5 41.5
t54.5 71.5q-6 -2 -17 -2q-35 0 -61.5 24.5t-26.5 67.5z" />
    <glyph glyph-name="dagger" unicode="&#x2020;" horiz-adv-x="522" 
d="M254 -188v784h-309v14h309v824h14v-824h310v-14h-310v-784h-14z" />
    <glyph glyph-name="daggerdbl" unicode="&#x2021;" horiz-adv-x="522" 
d="M254 -188v684h-371v14h371v233h-371v15h371v676h14v-676h371v-15h-371v-233h371v-14h-371v-684h-14z" />
    <glyph glyph-name="bullet" unicode="&#x2022;" horiz-adv-x="466" 
d="M408 756q0 -81 -51.5 -125.5t-123.5 -44.5q-71 0 -123.5 45t-52.5 125q0 81 52 126.5t124 45.5q71 0 123 -45.5t52 -126.5z" />
    <glyph glyph-name="ellipsis" unicode="&#x2026;" horiz-adv-x="964" 
d="M72 74q0 42 27 66t63 24q35 0 61.5 -24t26.5 -66q0 -43 -27 -67.5t-63 -24.5q-35 0 -61.5 24.5t-26.5 67.5zM393 74q0 42 27 66t63 24q35 0 61.5 -24t26.5 -66q0 -43 -27 -67.5t-63 -24.5q-35 0 -61.5 24.5t-26.5 67.5zM715 74q0 42 27 66t63 24q35 0 61.5 -24t26.5 -66
q0 -43 -27 -67.5t-63 -24.5q-35 0 -61.5 24.5t-26.5 67.5z" />
    <glyph glyph-name="perthousand" unicode="&#x2030;" horiz-adv-x="2410" 
 />
    <glyph glyph-name="guilsinglleft" unicode="&#x2039;" horiz-adv-x="448" 
d="M397 256l-342 436v47l342 437v-52l-325 -407l325 -410v-51z" />
    <glyph glyph-name="guilsinglright" unicode="&#x203a;" horiz-adv-x="448" 
d="M55 256v51l326 410l-326 407v52l342 -437v-47z" />
    <glyph glyph-name="fraction" unicode="&#x2044;" horiz-adv-x="845" 
d="M68 0h-15l719 1432h16z" />
    <glyph glyph-name="Euro" unicode="&#x20ac;" horiz-adv-x="1136" 
d="M41 813h176q28 283 181 452t382 169q171 0 314 -107l-37 -178q6 60 -22.5 121t-96 105t-158.5 44q-90 0 -164.5 -49.5t-124 -135t-80 -192.5t-40.5 -229h364v-14h-366q-6 -90 0 -183h366v-14h-366q13 -168 61 -304.5t139 -225t211 -88.5q75 0 126.5 22t80.5 66.5t42.5 89
t23.5 112.5l18 -215q-129 -90 -291 -90q-231 0 -385.5 173t-179.5 460h-174v14h174q-4 54 -4 84q0 33 4 99h-174v14z" />
    <glyph glyph-name="trademark" unicode="&#x2122;" horiz-adv-x="739" 
d="M375 1116v314h14l123 -226l123 226h16v-314h-18v281l-115 -207h-14l-115 207v-281h-14zM176 1116v303h-119v11h256v-11h-118v-303h-19z" />
    <glyph glyph-name="minus" unicode="&#x2212;" horiz-adv-x="835" 
d="M41 567v15h754v-15h-754z" />
    <glyph glyph-name="M.alt1" horiz-adv-x="1687" 
d="M1632 1419q-69 0 -110 -40.5t-41 -108.5v-1104q0 -69 41 -110.5t110 -41.5v-14h-458v14h2q68 0 108.5 41.5t40.5 110.5v1227l-424 -1037l123 -229q55 -103 105.5 -190t115 -186.5t125.5 -178t133.5 -153.5t142.5 -125.5t148.5 -80.5t155.5 -30q115 0 215.5 48t163.5 136
t63 195q0 103 -60 175t-163 75v14q137 0 219 -81.5t82 -197.5q0 -109 -74.5 -197.5t-195.5 -136t-261 -47.5q-135 0 -268 54.5t-244.5 143.5t-219.5 214.5t-192 255t-163 277.5l-635 1196v-1141q0 -69 41.5 -110.5t110.5 -41.5v-14h-318v14h2q68 0 109 41.5t41 110.5v1104
q0 68 -41.5 108.5t-110.5 40.5v15h271l569 -1061l434 1061h307v-15z" />
    <glyph glyph-name="a.alt1" horiz-adv-x="1048" 
d="M834 461h2q38 0 62 -28.5t24 -74.5v-358q0 -173 33.5 -313t89 -232t130 -154t153.5 -89t163 -27q115 0 215.5 47.5t163.5 135t63 194.5q0 103 -60 176t-163 74v14q137 0 219 -81.5t82 -195.5q0 -110 -74.5 -198t-195 -135t-260.5 -47q-105 0 -203.5 27.5t-191.5 91.5
t-162.5 158t-111.5 236.5t-42 317.5v350q0 3 0.5 8.5t0 8.5t-1 7t-3 5.5t-6.5 1.5q-11 0 -25 -30.5t-29 -76.5t-47 -99t-74 -99t-115 -76.5t-165 -30.5q-103 0 -168 61t-65 175q0 68 40 118t104 79.5t141.5 54t155.5 50t142 57.5t104 87.5t40 130.5q0 82 -47 138.5
t-113.5 80t-144.5 23.5q-30 0 -56.5 -3.5t-55.5 -13t-49 -25.5t-37 -41t-19.5 -60t2.5 -82q2 -8 2 -21q0 -36 -20 -56t-50 -20q-34 0 -59 26.5t-25 74.5q0 74 61.5 129t153.5 81.5t197 26.5q98 0 179 -23.5t135 -77.5t54 -130q0 -67 -37.5 -120t-98 -88t-133.5 -66
t-146 -61.5t-133.5 -65t-98 -87t-37.5 -118.5q0 -75 47 -116.5t121 -41.5q55 0 97.5 12.5t86.5 45t80.5 97.5t65.5 162q12 45 43 72t70 27z" />
    <glyph glyph-name="b.alt1" horiz-adv-x="1222" 
d="M682 1047q110 0 199 -46t144.5 -122.5t85.5 -171.5t30 -197q0 -80 -18 -155.5t-55.5 -142.5t-91 -117t-129.5 -79.5t-165 -29.5q-117 0 -180.5 66.5t-63.5 162.5q0 116 84 197l10 -11q-75 -81 -75 -184q0 -92 63 -154.5t176 -62.5q74 0 132 36t93 98.5t53.5 140.5
t18.5 167q0 103 -24.5 203t-69.5 182t-116.5 132.5t-157.5 50.5q-65 0 -116.5 -37t-83 -99.5t-49 -135.5t-20.5 -152v-457q0 -52 31 -83.5t82 -31.5h39v-14h-453v14h35q51 0 83 31.5t32 83.5v1057q0 123 -30.5 224.5t-82.5 171.5t-122 118t-148 70t-162 22
q-117 0 -209.5 -34t-147 -89.5t-82.5 -120.5t-28 -133q0 -103 60 -175t163 -75l-2 -14q-136 0 -218.5 81t-82.5 195q0 70 33.5 135.5t99 121t177.5 89t255 33.5q103 0 199.5 -22.5t184 -72t152.5 -121t103.5 -175.5t38.5 -229v-412q36 126 116.5 199.5t209.5 73.5z" />
    <glyph glyph-name="d.alt1" horiz-adv-x="1222" 
d="M1022 1186v-1057q0 -52 31 -83.5t82 -31.5h36v-14h-301l-2 543q0 84 -15.5 163.5t-46.5 149t-85 112t-123 42.5q-86 0 -157.5 -50.5t-116.5 -132.5t-70 -182t-25 -203q0 -89 18.5 -167t53.5 -140.5t93 -98.5t132 -36q113 0 177.5 63t64.5 154q0 100 -78 184l10 11
q84 -81 84 -197q0 -96 -62.5 -162.5t-180.5 -66.5q-89 0 -165 29.5t-129.5 79.5t-91 117t-55.5 142.5t-18 155.5q0 102 30 197t85.5 171.5t144.5 122.5t199 46q130 0 211.5 -75t117.5 -204v152v16v250q0 123 -30 224.5t-81.5 171.5t-121.5 118t-148 70t-163 22
q-94 0 -172.5 -22.5t-131.5 -60t-90 -86.5t-54 -101.5t-17 -106.5q0 -103 59.5 -175t161.5 -75v-14q-137 0 -219 81t-82 195q0 70 33.5 135.5t99 121t177 89t253.5 33.5q131 0 249.5 -37.5t215.5 -110.5t155 -195t58 -277z" />
    <glyph glyph-name="f.alt1" horiz-adv-x="686" 
d="M358 1010v-1010q0 -175 -41.5 -317.5t-110.5 -236.5t-162 -158t-192 -91.5t-204 -27.5q-140 0 -261 47t-195.5 135t-74.5 198q0 114 82 195.5t219 81.5v-14q-103 -1 -163 -74t-60 -176q0 -107 63 -194.5t164 -135t216 -47.5q85 0 164 27t153.5 89t129.5 154t88.5 232
t33.5 313v1010h-152l2 14h150v55q0 105 32.5 187t85 129.5t113 71.5t123.5 24q98 0 156.5 -49.5t58.5 -108.5q0 -40 -23 -63t-53 -23t-50.5 22.5t-20.5 61.5q0 60 -31.5 96.5t-75.5 36.5q-65 0 -114.5 -76.5t-49.5 -222.5v-141h273v-14h-273z" />
    <glyph glyph-name="g.alt1" horiz-adv-x="1085" 
d="M526 365q-111 0 -200.5 29t-144.5 77.5t-84 109t-29 126.5q0 65 29 125t84 108.5t144.5 77.5t200.5 29q168 0 287 -68q60 54 88.5 93.5t28.5 74.5q0 47 -51 98q-19 19 -19 37q0 24 25 41.5t57 17.5q29 0 48.5 -19.5t19.5 -59.5q0 -73 -41 -133.5t-144 -155.5
q77 -48 117.5 -118.5t40.5 -147.5q0 -119 -90 -213t-256 -121q38 -46 100 -106t118 -109.5t117 -113.5t105 -123t72.5 -131t28.5 -144q0 -117 -48 -216t-129 -167.5t-189.5 -117t-228 -71t-245.5 -22.5q-147 0 -282.5 31.5t-242.5 90t-171 150.5t-64 205q0 102 54 187.5
t142.5 139.5t199 83.5t227.5 29.5q177 0 322 -67.5t210 -196.5l-14 -6q-59 119 -202.5 186.5t-309.5 67.5q-99 0 -187.5 -25t-160 -74t-114 -130t-42.5 -183q0 -91 36 -169t97.5 -133.5t144 -95t176.5 -58.5t193 -19q104 0 203 21t188 65.5t156 107.5t106 153.5t39 197.5
q-1 88 -30.5 176t-82 167.5t-104 144.5t-116.5 143t-99 127q-54 -4 -84 -4zM594 729l104 117l13 -6l-90 -103q-74 -83 -74 -164q0 -84 74 -178q119 7 178 71t59 159q0 67 -29 136.5t-79.5 126.5t-125.5 93.5t-159 36.5q-137 0 -204.5 -65.5t-67.5 -168.5t56.5 -194
t149 -144.5t195.5 -52.5q-66 107 -66 185q0 79 66 151z" />
    <glyph glyph-name="h.alt1" horiz-adv-x="1239" 
d="M205 129v1057q0 123 -30.5 224.5t-82.5 171.5t-122 118t-148 70t-162 22q-117 0 -209.5 -34t-147 -89.5t-82.5 -120.5t-28 -133q0 -103 60 -175t163 -75l-2 -14q-136 0 -218.5 81t-82.5 195q0 70 33.5 135.5t99 121t177.5 89t255 33.5q103 0 199.5 -22.5t184 -72
t152.5 -121t103.5 -175.5t38.5 -229v-273q55 66 139 100t177 34q138 0 238 -67t100 -179q0 -60 -27 -147t-59 -161.5t-59 -162t-27 -148.5q0 -82 32 -125t84 -43q60 0 125 57.5t113 161.5l12 -8q-61 -128 -146 -192t-169 -64q-86 0 -144 59t-59 154q1 50 29 136.5t61 166.5
t60.5 175t27.5 161q0 89 -71.5 145t-171.5 56q-73 0 -143 -32t-122 -97v-764q0 -52 31 -83.5t82 -31.5h39v-14h-453v14h35q51 0 83 31.5t32 83.5z" />
    <glyph glyph-name="i.alt1" horiz-adv-x="555" 
d="M203 1126l-6 13q59 30 59 57q0 14 -29.5 48.5t-29.5 62.5q0 32 26 51.5t62 19.5q32 0 56 -21t24 -61q0 -26 -9 -48t-30.5 -41t-35.5 -29t-46 -28t-41 -24zM354 1047v-1047q0 -173 33.5 -313t88.5 -232t130 -154t154 -89t164 -27q115 0 215.5 47.5t163.5 135t63 194.5
q0 103 -60 176t-163 74v14q137 0 219 -81.5t82 -195.5q0 -110 -74.5 -198t-195.5 -135t-261 -47q-105 0 -204 27.5t-192 91.5t-162 158t-110.5 236.5t-41.5 317.5v895q0 52 -31 78.5t-82 17.5h-4v15z" />
    <glyph glyph-name="j.alt1" horiz-adv-x="514" 
d="M197 1139q59 30 59 57q0 14 -29.5 48.5t-29.5 62.5q0 32 26 51.5t62 19.5q32 0 56 -21t24 -61q0 -26 -9 -48t-30.5 -41t-35.5 -29t-46 -28t-41 -24zM-567 -174v-14q-102 -1 -163 -74t-61 -176q0 -107 63 -194.5t164 -135t216 -47.5q85 0 164 27t153.5 89t129.5 154
t88.5 232t33.5 313v895q0 53 -30.5 79t-81.5 17h-5v15l269 41v-1047q0 -175 -42 -317.5t-111 -236.5t-162 -158t-192 -91.5t-204 -27.5q-140 0 -260.5 47t-195 135t-74.5 198q0 114 82 195.5t219 81.5z" />
    <glyph glyph-name="k.alt1" horiz-adv-x="1193" 
d="M356 455l308 389q43 55 43 94q0 34 -32 53t-91 19h-15v14h459v-14h-6q-95 0 -188.5 -45.5t-153.5 -120.5l-193 -246q114 92 246 92q110 0 184 -66.5t74 -179.5q0 -46 -21 -94.5t-45.5 -82t-45.5 -73t-21 -71.5q0 -111 80 -111q64 0 142 64.5t120 156.5l12 -8
q-62 -130 -151.5 -193t-179.5 -63q-76 0 -127.5 41t-51.5 103q0 40 21 87t46 84t46 86t21 93q0 93 -44 148t-116 55q-115 0 -248 -142l-72 -92v-303q0 -52 31 -83.5t82 -31.5h39v-14h-453v14h35q51 0 83 31.5t32 83.5v1057q0 123 -30.5 224.5t-82.5 171.5t-122 118t-148 70
t-162 22q-117 0 -209.5 -34t-147 -89.5t-82.5 -120.5t-28 -133q0 -103 60 -175t163 -75l-2 -14q-136 0 -218.5 81t-82.5 195q0 70 33.5 135.5t99 121t177.5 89t255 33.5q103 0 199.5 -22.5t184 -72t152.5 -121t103.5 -175.5t38.5 -229v-731z" />
    <glyph glyph-name="l.alt1" horiz-adv-x="557" 
d="M205 129v1057q0 123 -30.5 224.5t-82.5 171.5t-122 118t-148 70t-162 22q-117 0 -209.5 -34t-147 -89.5t-82.5 -120.5t-28 -133q0 -103 60 -175t163 -75l-2 -10q-136 0 -218.5 81.5t-82.5 193.5q0 69 33.5 134t99 120t177.5 88.5t255 33.5q103 0 199.5 -22.5t184 -72
t152.5 -121t103.5 -175.5t38.5 -229v-1057q0 -52 31 -83.5t82 -31.5h39v-14h-453v14h35q51 0 83 31.5t32 83.5z" />
    <glyph glyph-name="m.alt1" horiz-adv-x="1740" 
d="M1567 801q0 -78 -21 -158t-50.5 -150.5t-59.5 -144t-51 -164.5t-21 -184q0 -170 33.5 -309.5t89.5 -232t130.5 -155.5t154 -90.5t163.5 -27.5q115 0 215.5 47.5t163 135t62.5 194.5q0 103 -61 176t-163 74v14q137 0 219.5 -81.5t82.5 -195.5q0 -110 -75 -198t-195 -135
t-259 -47q-105 0 -203.5 27.5t-192 91.5t-163.5 158t-112 236.5t-42 317.5q0 99 21.5 193.5t52 169.5t61.5 146.5t52.5 152t21.5 159.5q0 90 -65.5 145.5t-157.5 55.5q-71 0 -139.5 -35.5t-118.5 -105.5q14 -44 14 -80q0 -60 -27 -147t-59 -161.5t-59 -162t-27 -148.5
q0 -82 32.5 -125t84.5 -43q59 0 125 57.5t113 161.5l12 -8q-61 -128 -146.5 -192t-171.5 -64q-85 0 -142.5 59t-57.5 154q0 50 28 136.5t61 166.5t61 175.5t28 160.5q0 90 -65.5 145.5t-157.5 55.5q-134 0 -232 -109v-784q0 -53 31 -84t84 -31h35v-14h-453v14h37
q52 0 83.5 31t31.5 84v766q0 52 -31 78.5t-82 17.5h-4v15l268 41v-113q53 56 128 84.5t155 28.5q98 0 180.5 -41t116.5 -113q52 76 136.5 115t178.5 39q83 0 154.5 -28t117.5 -85.5t46 -132.5z" />
    <glyph glyph-name="n.alt1" horiz-adv-x="1161" 
d="M354 129q0 -53 31 -84t84 -31h35v-14h-453v14h37q52 0 83.5 31t31.5 84v766q0 52 -31 78.5t-82 17.5h-4v15l268 41v-134q56 67 140.5 100.5t177.5 33.5q138 0 238 -67t100 -179q0 -94 -26.5 -203t-58.5 -193t-58.5 -195.5t-26.5 -209.5q0 -170 33.5 -309.5t89 -232
t130 -155.5t154.5 -90.5t164 -27.5q115 0 214.5 47.5t161.5 135t62 194.5q0 103 -59.5 176t-161.5 74v14q137 0 219 -81.5t82 -195.5q0 -110 -74.5 -198t-194.5 -135t-259 -47q-105 0 -204 27.5t-192.5 91.5t-163 158t-111.5 236.5t-42 317.5q0 99 18 193.5t44 169.5
t52 146.5t44 152t18 159.5q0 89 -71.5 145t-171.5 56q-73 0 -143.5 -32t-123.5 -97v-764z" />
    <glyph glyph-name="p.alt1" horiz-adv-x="1222" 
d="M-586 -174v-14q-103 -1 -163 -74t-60 -176q0 -107 63 -194.5t163.5 -135t215.5 -47.5q85 0 164 27t154 89t130 154t88.5 232t33.5 313v895q0 52 -31 78.5t-82 17.5h-4v15l268 41v-277q36 128 117 202.5t211 74.5q110 0 199 -46t144.5 -122.5t85.5 -171.5t30 -197
q0 -80 -18 -155.5t-55.5 -142.5t-91 -117t-129.5 -79.5t-165 -29.5q-117 0 -180.5 66.5t-63.5 162.5q0 116 84 197l10 -11q-75 -81 -75 -184q0 -92 63 -154.5t176 -62.5q74 0 132 36t93 98.5t53.5 140.5t18.5 167q0 103 -24.5 203t-69.5 182t-116.5 132.5t-157.5 50.5
q-69 0 -123 -42.5t-85.5 -112t-47 -149t-15.5 -163.5v-543q0 -175 -41.5 -317.5t-110.5 -236.5t-162 -158t-192 -91.5t-204 -27.5q-140 0 -261 47t-195.5 135t-74.5 198q0 114 82 195.5t219 81.5z" />
    <glyph glyph-name="t.alt1" horiz-adv-x="720" 
d="M176 182v828h-143v14h143v162q0 153 -46 272t-123.5 190t-173 107.5t-202.5 36.5q-94 0 -172.5 -22.5t-131.5 -60t-90 -86.5t-54 -101.5t-17 -106.5q0 -103 60.5 -175t163.5 -75l-2 -14q-137 0 -219 81t-82 195q0 70 33.5 135.5t99 121t177 89t253.5 33.5
q131 0 249.5 -37.5t215.5 -110.5t155 -195t58 -277v-162h309v-14h-309v-822q0 -85 31.5 -129.5t84.5 -44.5q59 0 124 57.5t112 161.5l12 -8q-61 -128 -146 -192t-169 -64q-85 0 -143 59t-58 154z" />
    <glyph glyph-name="u.alt1" horiz-adv-x="1200" 
d="M846 193v704q0 51 -31 82t-82 31h-4v14h268v-1024q0 -173 33.5 -313t89 -232t130.5 -154t154.5 -89t164.5 -27q115 0 215 47.5t162.5 135t62.5 194.5q0 103 -60 176t-163 74v14q137 0 220 -81.5t83 -195.5q0 -110 -75.5 -198t-196.5 -135t-261 -47q-105 0 -203.5 27.5
t-191.5 91.5t-162 158t-111 236.5t-42 317.5v176q-45 -103 -145.5 -156t-217.5 -53q-89 0 -165 28t-124.5 85t-48.5 131q0 61 26.5 148t58.5 161.5t58.5 162t26.5 148.5q0 82 -31 125t-83 43q-62 0 -127 -59l-11 10q96 92 203 92q85 0 143 -58t58 -153q0 -51 -27.5 -137.5
t-60.5 -166t-60.5 -174.5t-27.5 -160q0 -91 71 -146t173 -55q91 0 175.5 50.5t135.5 150.5z" />
    <glyph glyph-name="v.alt1" horiz-adv-x="1064" 
d="M524 -2h-16q2 2 2 4l-2 -4l-354 856q-140 339 -209 474q-155 302 -323 405q-103 63 -220 63q-115 0 -215.5 -47.5t-163.5 -135t-63 -194.5q0 -102 60.5 -174.5t162.5 -75.5v-14q-137 0 -219 81.5t-82 195.5q0 110 74.5 198t195 135t260.5 47q98 0 186 -25.5t161 -69
t140.5 -111t122 -142t108 -173.5t96 -193t89.5 -211l283 -719q17 29 70 120t78 135.5t67 125.5t62.5 132.5t37.5 112t17 105.5q0 49 -35.5 82t-79.5 33t-73 -36.5t-29 -109.5q0 -35 -19.5 -53t-48.5 -18q-27 0 -47 19t-20 54q0 71 65 117.5t145 46.5q67 0 111.5 -34
t44.5 -101q0 -84 -52 -212t-116 -238.5t-142 -245.5t-110 -205z" />
    <glyph glyph-name="w.alt1" horiz-adv-x="1646" 
d="M1112 -2h-10l-277 723l-284 -723h-15l-336 891q-20 54 -68.5 87.5t-105.5 33.5h-6v14h457v-14h-23q-45 0 -69.5 -20t-24.5 -56q0 -24 8 -45l248 -688l211 542l-43 111q-36 92 -62.5 158.5t-64 152t-68.5 146.5t-72.5 131.5t-80 118.5t-86.5 96t-96.5 76t-105.5 45.5
t-118 17.5q-115 0 -215 -47.5t-162.5 -135t-62.5 -194.5q0 -103 60 -175t163 -75l-2 -14q-137 0 -219 81.5t-82 195.5q0 110 75.5 198t196.5 135t261 47q136 0 255 -48t210.5 -129t173.5 -202.5t143 -251.5t119 -294l256 -717q16 29 67.5 120t75.5 135t65 125t60.5 132
t36 111.5t16.5 105.5q0 49 -35.5 82t-80.5 33q-42 0 -71.5 -36.5t-29.5 -109.5q0 -35 -19.5 -53t-47.5 -18q-29 0 -49.5 19t-20.5 54q0 71 66.5 117.5t146.5 46.5q67 0 111.5 -34t44.5 -101q0 -79 -45.5 -197t-99.5 -216t-131.5 -233t-110.5 -200z" />
    <glyph glyph-name="x.alt1" horiz-adv-x="1050" 
d="M844 915q-76 -102 -275 -294l267 -494q61 -114 108 -196t113 -187t121.5 -179t126.5 -151t137.5 -124t144 -77t154.5 -30q114 0 214.5 48t163 136t62.5 195q0 102 -59.5 174.5t-161.5 75.5v14q137 0 219 -82.5t82 -196.5q0 -109 -74.5 -197.5t-195 -136t-260.5 -47.5
q-136 0 -265 51.5t-234.5 135.5t-209 208t-184 250.5t-162.5 282.5l-223 420q-202 -184 -244 -227q-113 -114 -113 -162q0 -49 36 -83t81 -34q42 0 72 36.5t30 109.5q0 35 19.5 54t46.5 19q29 0 49.5 -19t20.5 -54q0 -72 -66 -118t-147 -46q-67 0 -111.5 34t-44.5 101
q0 27 21.5 62.5t80.5 95t93.5 91.5t128.5 116q27 24 40 36l-204 383q-25 45 -71.5 73t-96.5 28h-23v14h457v-14h-35q-36 0 -55 -14t-19 -38q0 -20 13 -49l151 -276q150 143 223 233q33 45 33 74q0 31 -29 50.5t-81 19.5h-17v14h330v-14h-10q-46 0 -92 -25.5t-76 -69.5z" />
    <glyph glyph-name="y.alt1" horiz-adv-x="1120" 
d="M362 893l302 -750l2 2q124 225 213.5 443.5t89.5 310.5q0 49 -36 82t-81 33q-42 0 -72 -36.5t-30 -109.5q0 -34 -19.5 -52.5t-46.5 -18.5q-29 0 -49.5 19t-20.5 54q0 71 66.5 117.5t146.5 46.5q67 0 111.5 -34t44.5 -101q0 -90 -94.5 -327t-224.5 -463l-66 -109
q-226 -382 -524 -606.5t-557 -224.5q-129 0 -233.5 35t-167 91.5t-95.5 123.5t-33 137q0 113 79.5 191.5t219.5 78.5l2 -14q-85 -1 -130.5 -52t-45.5 -129q0 -66 33 -134.5t92.5 -128.5t156.5 -98t212 -38q103 0 223 47.5t246 138t255.5 236.5t237.5 330l-376 909
q-22 52 -69.5 84.5t-103.5 32.5h-10v14h457v-14h-27q-42 0 -65 -18.5t-23 -51.5q0 -27 10 -47z" />
    <glyph glyph-name="A.alt1" horiz-adv-x="1558" 
d="M215 184l490 1090l-70 160h164l575 -1307q146 -330 163 -368q144 -304 276 -435q142 -141 315 -141q114 0 214.5 48t163 136t62.5 195q0 103 -60 175t-163 75l2 14q137 0 219 -81.5t82 -197.5q0 -109 -75 -197.5t-196 -136t-259 -47.5q-98 0 -186.5 26.5t-159 69
t-139 113.5t-120.5 142.5t-108 175t-97.5 191.5t-93.5 210l-198 459q-80 29 -174 29q-194 0 -355 -112t-258 -292q-14 -32 -14 -65q0 -44 30 -71.5t83 -27.5v-14h-312v14q50 0 111 55.5t88 114.5zM1008 571l-295 684l-441 -976q104 145 252.5 231t317.5 86q83 0 166 -25z
" />
    <glyph glyph-name="F.alt1" horiz-adv-x="1144" 
d="M739 608h-377v-211q0 -175 -42 -318t-111 -237t-162.5 -158t-192.5 -92t-204 -28q-140 0 -261.5 47.5t-196.5 136t-75 197.5q0 115 82 196.5t219 81.5v-14q-103 -3 -163 -75t-60 -175q0 -107 63 -195t164 -136t216 -48q85 0 164 27t153.5 89.5t129.5 154.5t88.5 232
t33.5 312v877q0 66 -41 106.5t-107 40.5h-4v15h961l67 -287q-14 0 -16 6q-28 78 -51 116q-89 150 -238 150h-416v-796h377q41 0 74.5 13t53 31t35.5 44.5t22 44.5t12.5 41t7.5 26t4 4.5t6 1.5h2q-12 -132 -12 -217q0 -84 12 -243q-10 0 -12 8q-1 3 -2 11q-5 32 -10 52
t-19.5 55.5t-34.5 57t-56 38.5t-83 17z" />
    <glyph glyph-name="G.alt1" horiz-adv-x="1445" 
d="M1145 102v504q0 47 -29 76t-76 29h-41v14h412v-14h-10q-47 0 -76 -29t-31 -76l-4 -442v-164q0 -175 -42 -317.5t-111 -236.5t-162 -158t-191.5 -91.5t-203.5 -27.5q-140 0 -261 47t-195.5 135t-74.5 198q0 114 82 195.5t219 81.5v-14q-103 -1 -163 -74t-60 -176
q0 -107 63 -194.5t164 -135t217 -47.5q85 0 164.5 27t155 89t131 154t89.5 232t34 313v84q-50 -56 -122.5 -85.5t-186.5 -29.5q-146 0 -270 42t-212 114t-150 167.5t-92 203.5t-30 221q0 165 58 306t155 234t221.5 145t259.5 52q58 0 116 -9t117.5 -30.5t105 -53.5t74 -83
t28.5 -113q0 -67 -32.5 -103t-76.5 -36q-36 0 -63 24.5t-27 65.5q0 30 10.5 52t25 33.5t29 20.5t25 19.5t10.5 24.5q0 19 -16 43q-52 66 -146 95.5t-188 29.5q-108 0 -197.5 -33t-152.5 -90t-106.5 -135t-64 -167t-20.5 -186q0 -116 29 -231t88.5 -218.5t142 -183.5
t197 -127t246.5 -47t215 86z" />
    <glyph glyph-name="H.alt1" horiz-adv-x="1538" 
d="M1333 1274v-1274q0 -173 33.5 -313t88.5 -232t130 -154t154 -89t164 -27q115 0 215.5 47.5t163.5 135t63 194.5q0 103 -60 176t-163 74v14q137 0 219 -81.5t82 -195.5q0 -110 -75.5 -198t-196.5 -135t-261 -47q-105 0 -204 27.5t-192.5 91.5t-162.5 158t-111 236.5
t-42 317.5v694q-116 86 -293 86q-338 0 -523 -221v-399q0 -64 41 -105t105 -41h4v-14h-457v14h6q66 0 106 40.5t40 105.5v1114q0 66 -40 105.5t-106 39.5h-6v15h457v-15h-4q-65 0 -105.5 -39.5t-40.5 -105.5v-692q189 213 523 213q176 0 293 -82v561q0 66 -40 105.5
t-106 39.5h-6v15h457v-15h-4q-65 0 -105.5 -39.5t-40.5 -105.5z" />
    <glyph glyph-name="J.alt1" horiz-adv-x="999" 
d="M958 1419q-69 0 -110 -40.5t-41 -108.5v-873q0 -175 -42 -318t-111.5 -237t-163 -158t-192.5 -92t-204 -28q-140 0 -261 47.5t-196 136t-75 197.5q0 115 82 196.5t219 81.5v-14q-102 -3 -161.5 -75t-59.5 -175q0 -107 62.5 -195t163 -136t214.5 -48q85 0 164 27
t153.5 89.5t129.5 154.5t88.5 232t33.5 312v875q0 68 -41 108.5t-110 40.5v15h458v-15z" />
    <glyph glyph-name="K.alt1" horiz-adv-x="1378" 
d="M514 1419h-4q-66 0 -107 -40.5t-41 -106.5v-498l416 438q74 77 74 144q0 63 -80 63h-22v15h458v-15h-14q-86 0 -208 -68t-189 -141l-379 -403q79 24 145 24q95 0 183 -56.5t159.5 -151.5t140 -218.5t132.5 -260t129 -273t137.5 -260t149.5 -218.5t173.5 -151.5
t202.5 -56.5q115 0 216 47.5t164 135t63 194.5q0 103 -60.5 176t-163.5 74v14q137 0 219 -81.5t82 -195.5q0 -110 -74.5 -198t-195 -135t-260.5 -47q-103 0 -198 32.5t-167 76t-149 129.5t-125 150t-114.5 184.5t-98.5 186t-94 196.5q-71 150 -108 223.5t-104 183.5
t-119.5 159t-126.5 82.5t-153 20.5l-41 -45v-586q0 -66 41 -107t107 -41h4v-14h-459v14h4q66 0 107 41t41 107v1110q0 66 -41 106.5t-107 40.5h-4v15h459v-15z" />
    <glyph glyph-name="N.alt1" horiz-adv-x="1458" 
d="M217 1235v-1042q0 -79 42 -129t110 -50v-14h-316v14q68 0 110 50t42 129v1048q0 79 -42 128.5t-110 49.5v15h201l997 -1299v1106q0 80 -41 129t-110 49v15h317v-15q-67 0 -109 -49t-42 -129v-1122q233 -305 335 -425q324 -381 564 -476q88 -35 168 -35q115 0 215.5 48
t163.5 136t63 195q0 102 -60.5 174.5t-162.5 75.5v14q137 0 219 -81.5t82 -197.5q0 -109 -74.5 -197.5t-195.5 -136t-261 -47.5q-134 0 -277.5 58t-266.5 146.5t-255 218t-231 246.5t-207 259z" />
    <glyph glyph-name="P.alt1" horiz-adv-x="1128" 
d="M-582 219v-14q-103 -3 -163 -76t-60 -176q0 -107 63 -194.5t164 -135t216 -47.5q85 0 164 27t153.5 89t129.5 154t88.5 232t33.5 313v879q0 67 -41 108t-109 41h-2v15h459q123 0 222.5 -35t161.5 -93.5t95 -131t33 -150.5t-33 -151t-95 -131.5t-161.5 -94t-222.5 -35.5
h-152v-221q0 -175 -42 -317.5t-111 -236.5t-162.5 -158t-192.5 -91.5t-204 -27.5q-140 0 -261.5 47t-196.5 135.5t-75 198.5q0 114 82 196t219 82zM362 627h166q109 1 189 60.5t117.5 148.5t37.5 192q0 75 -22 144t-63 125t-108 89t-151 33h-166v-792z" />
    <glyph glyph-name="Q.alt1" horiz-adv-x="1679" 
d="M840 1464q146 0 270.5 -41.5t212 -113.5t149.5 -167.5t91.5 -203t29.5 -221.5q0 -186 -80 -352t-231 -269q33 -66 66.5 -159.5t58.5 -174.5t57 -170t71.5 -159t91 -127.5t126 -89t168.5 -31.5q115 0 215 47.5t162.5 135t62.5 194.5q0 103 -60 176t-163 74l2 14
q137 0 219 -81.5t82 -195.5q0 -110 -75 -198t-195.5 -135t-259.5 -47q-96 0 -177.5 24t-140 62t-110 98.5t-85 119t-67 139.5t-53.5 143.5t-48 147t-48 136.5q-156 -70 -342 -70q-146 0 -270.5 42t-212.5 114t-150 167.5t-91.5 203.5t-29.5 221q0 114 29.5 221.5t91.5 203
t150 167.5t212.5 113.5t270.5 41.5zM889 365q133 0 223 -63.5t154 -178.5q94 84 142 212t48 277q0 118 -29 235t-88 222.5t-140.5 187t-195.5 129.5t-243 48q-107 0 -196 -33t-151 -90t-105 -135t-63 -167.5t-20 -187.5q0 -196 79 -381.5t222 -300.5q40 101 140.5 163.5
t222.5 62.5zM920 0q141 0 256 59q-27 67 -54.5 116t-64.5 90t-85 62t-106 21q-95 0 -189 -55t-145 -158q167 -135 388 -135z" />
    <glyph glyph-name="R.alt1" horiz-adv-x="1345" 
d="M362 164q0 -68 41 -109t109 -41h2v-14h-459v14h2q67 0 108.5 41t41.5 109v1106q0 67 -41 108t-109 41h-2v15h492q123 0 222.5 -33t161 -88t94 -123t32.5 -143q0 -65 -25.5 -126t-74 -112.5t-126 -88.5t-174.5 -50q63 -6 121.5 -33t104 -62t93.5 -97.5t81 -114t76 -138
t68.5 -143t67.5 -153.5q46 -106 70.5 -160.5t71 -147.5t80.5 -143t86 -115t100.5 -97.5t111.5 -56.5t132 -24q115 0 215 47.5t162.5 135t62.5 194.5q0 103 -60 176t-163 74l2 14q137 0 219 -81.5t82 -195.5q0 -110 -75 -198t-195.5 -135t-259.5 -47q-300 0 -523 269
q-124 150 -268 449q-21 42 -60 126q-127 268 -195 376q-134 212 -283 258q-47 15 -97 15h-123v-498zM362 676h199q109 0 189 56t117.5 140t37.5 181q0 71 -22 135.5t-63 116.5t-108 83t-151 31h-199v-743z" />
    <glyph glyph-name="S.alt1" horiz-adv-x="1257" 
d="M1200 162q0 -113 -37 -207t-100 -158t-147.5 -108.5t-178 -65t-192.5 -20.5q-129 0 -237.5 26t-183 70t-126.5 102.5t-76 123t-24 132.5q0 75 30.5 143t86 122t143.5 86t194 32q133 0 229.5 -70.5t155.5 -187.5l-14 -6q-57 114 -149.5 182t-221.5 68q-103 0 -180 -50.5
t-114.5 -130t-37.5 -173.5q0 -67 19.5 -130.5t62.5 -122.5t104.5 -103t152 -70.5t198.5 -26.5q100 0 192 29.5t167 86.5t120 150t45 209q0 96 -32.5 176.5t-87 137t-125.5 104.5t-149.5 86t-157 74.5t-149.5 77t-125.5 86t-87 108.5t-32.5 139q0 91 39 163t104.5 115.5
t146 66t169.5 22.5q124 0 231.5 -38.5t178.5 -118.5t71 -187q0 -67 -33 -103t-77 -36q-36 0 -62 25t-26 67q0 35 15.5 59.5t33.5 35t33.5 25t15.5 31.5q0 66 -57 118t-144.5 79t-185.5 27q-73 0 -138 -16.5t-118.5 -49t-85 -87.5t-31.5 -126q0 -61 33.5 -112t90.5 -89.5
t131 -75t156 -73t163.5 -77t155.5 -94.5t131 -118.5t90.5 -155t33.5 -198.5z" />
    <glyph glyph-name="X.alt1" horiz-adv-x="1267" 
d="M20 1419h-6v15h457v-15h-2q-45 0 -69.5 -16.5t-24.5 -46.5q0 -25 22 -64l293 -499l326 487q26 42 26 78q0 28 -19.5 44.5t-57.5 16.5h-2v15h284v-15h-4q-50 0 -106.5 -35.5t-87.5 -80.5l-351 -525l385 -651q44 -74 70 -121l4 -6q15 -26 44 -79q60 -107 91 -161.5
t88.5 -147.5t96 -142t96.5 -113t108.5 -96t114 -55t129.5 -23q114 0 214.5 48t163 136t62.5 195q0 103 -59.5 175t-161.5 75v14q137 0 219 -81.5t82 -197.5q0 -109 -75 -197.5t-196 -136t-259 -47.5q-289 0 -529 245q-147 150 -332 459q-34 58 -130 224l-318 545l-319 -477
q-31 -50 -31 -88q0 -60 59 -60h2v-14h-284v14h4q58 0 129 49t108 105l324 485l-379 652q-30 52 -85 83t-114 31z" />
    <glyph glyph-name="Y.alt1" horiz-adv-x="1300" 
d="M399 1300l361 -559l303 529q22 42 22 78q0 32 -20.5 51.5t-60.5 19.5h-3v15h285v-15h-6q-50 0 -104 -38t-82 -85l-332 -577v-316q0 -175 -42 -317.5t-111.5 -236.5t-163 -158t-192.5 -91.5t-204 -27.5q-140 0 -261 47t-196 135.5t-75 198.5q0 114 82 195t219 81v-14
q-102 -1 -161.5 -74t-59.5 -176q0 -107 62.5 -194.5t162.5 -135t215 -47.5q85 0 164 27t153.5 89t129.5 154t88.5 232t33.5 313v269l-385 633q-30 52 -86 83t-117 31h-4v15h457v-15h-6q-88 0 -88 -57q0 -23 22 -62z" />
    </font>
</defs>
</svg>
