<?xml version="1.0" standalone="no"?>
<!DOCTYPE svg PUBLIC "-//W3C//DTD SVG 1.1//EN" "http://www.w3.org/Graphics/SVG/1.1/DTD/svg11.dtd" >
<svg xmlns="http://www.w3.org/2000/svg" xmlns:xlink="http://www.w3.org/1999/xlink" version="1.1">
<metadata>
Created by FontForge 20190801 at Mon Apr 22 17:12:17 2019
 By www-data
Copyright (c) 2018 by Stefan Claudius. All rights reserved. |DCNT
</metadata>
<defs>
<font id="CASaygonTextRegular" horiz-adv-x="0" >
  <font-face 
    font-family="CASaygonTextRegular"
    font-weight="400"
    font-stretch="normal"
    units-per-em="1000"
    panose-1="0 0 5 0 0 0 0 0 0 0"
    ascent="766"
    descent="-234"
    x-height="543"
    cap-height="713"
    bbox="-515 -353 1154 1076"
    underline-thickness="50"
    underline-position="-100"
    unicode-range="U+000D-E000"
  />
<missing-glyph horiz-adv-x="609" 
d="M23 0v627h535v-627h-535zM290 354l182 222h-363zM76 91l182 224l-182 221v-445zM504 91v445l-181 -221zM109 52h363l-182 223z" />
    <glyph glyph-name=".notdef" horiz-adv-x="609" 
d="M23 0v627h535v-627h-535zM290 354l182 222h-363zM76 91l182 224l-182 221v-445zM504 91v445l-181 -221zM109 52h363l-182 223z" />
    <glyph glyph-name=".null" 
 />
    <glyph glyph-name="nonmarkingreturn" horiz-adv-x="333" 
 />
    <glyph glyph-name="CR.001" unicode="&#xd;" horiz-adv-x="270" 
 />
    <glyph glyph-name="space" unicode=" " horiz-adv-x="270" 
 />
    <glyph glyph-name="exclam" unicode="!" horiz-adv-x="296" 
d="M112 245l-17 488h107l-20 -488h-70zM100 0v105h95v-105h-95z" />
    <glyph glyph-name="quotedbl" unicode="&#x22;" horiz-adv-x="376" 
d="M84 475l-18 240h82l-16 -240h-48zM245 475l-18 240h82l-17 -240h-47z" />
    <glyph glyph-name="numbersign" unicode="#" horiz-adv-x="579" 
d="M116 0l24 204h-95v63h102l21 172h-90v63h97l24 198h66l-24 -198h129l24 198h65l-24 -198h98v-63h-105l-20 -172h92v-63h-100l-24 -204h-65l23 204h-129l-23 -204h-66zM214 267h128l20 172h-129z" />
    <glyph glyph-name="dollar" unicode="$" horiz-adv-x="632" 
d="M582 195q0 -96 -65 -150.5t-179 -58.5v-80h-56v82q-98 9 -159 59t-79 134l93 20q26 -113 145 -130v256q-109 29 -164 72q-56 44 -56 131q0 86 59.5 138.5t160.5 58.5v65h56v-65q96 -7 156.5 -55t77.5 -130l-93 -12q-24 103 -141 115v-241l53 -15q4 -1 49 -16
q29 -10 47 -21q54 -31 69 -59q26 -42 26 -98zM153 532q0 -44 28.5 -67.5t100.5 -45.5v227q-60 -5 -94.5 -35.5t-34.5 -78.5zM338 313v-245q69 3 109.5 35t40.5 82q0 52 -33.5 79t-116.5 49z" />
    <glyph glyph-name="percent" unicode="%" horiz-adv-x="838" 
d="M194 299q-74 0 -113.5 56t-39.5 152q0 97 39.5 153t113.5 56q76 0 115.5 -56t39.5 -153q0 -96 -40 -152t-115 -56zM198 -11l396 726h57l-395 -726h-58zM194 349q50 0 76 42t26 117q0 158 -102 158q-100 0 -100 -158q0 -74 26 -116.5t74 -42.5zM642 -11q-74 0 -113.5 56
t-39.5 152q0 97 39.5 153t113.5 56t114 -56t40 -153q0 -96 -40 -152t-114 -56zM743 198q0 158 -101 158t-101 -158q0 -75 25.5 -117t75.5 -42t75.5 42t25.5 117z" />
    <glyph glyph-name="ampersand" unicode="&#x26;" horiz-adv-x="736" 
d="M632 83h85v-83h-108q-37 0 -62 31l-44 53q-48 -56 -100 -78q-50 -22 -134 -22q-91 0 -152 48q-60 48 -60 133q0 70 44 124t137 104q-53 60 -74 96t-21 76q0 71 54 117q56 47 139 47q76 0 130 -42t54 -116q0 -59 -37 -104.5t-119 -91.5l136 -162q15 23 42 72l41 72h97
q-124 -202 -127 -205l29 -36q18 -21 26.5 -27t23.5 -6zM334 655q-45 0 -73 -25t-28 -65q0 -33 17 -55q18 -25 21 -28l13 -15q10 -14 33 -37q63 33 91 65t28 69q0 41 -28.5 66t-73.5 25zM300 62q86 0 153 82l-161 192q-77 -41 -108 -77.5t-31 -84.5q0 -52 41 -82t106 -30z
" />
    <glyph glyph-name="quotesingle" unicode="'" horiz-adv-x="215" 
d="M84 474l-18 240h82l-16 -240h-48z" />
    <glyph glyph-name="parenleft" unicode="(" horiz-adv-x="307" 
d="M283 -144h-82q-78 117 -111 218q-32 104 -32 242q0 140 33 240q35 103 112 218h80q-71 -111 -102 -217q-31 -105 -31 -241q0 -137 31 -242t102 -218z" />
    <glyph glyph-name="parenright" unicode=")" horiz-adv-x="307" 
d="M106 -143h-81q69 110 101 218t32 241q0 132 -32 240q-32 110 -101 219h80q78 -117 111 -219q34 -99 34 -240q0 -140 -33 -242q-34 -102 -111 -217z" />
    <glyph glyph-name="asterisk" unicode="*" horiz-adv-x="468" 
d="M148 361l-55 40l92 116l-132 45l21 64l128 -51l-2 142h68l-3 -142l130 51l21 -64l-133 -45l92 -115l-55 -41l-86 115z" />
    <glyph glyph-name="plus" unicode="+" horiz-adv-x="508" 
d="M217 23v195h-170v66h170v191h73v-191h170v-66h-170v-195h-73z" />
    <glyph glyph-name="comma" unicode="," horiz-adv-x="255" 
d="M38 -136l51 251h95l-77 -251h-69z" />
    <glyph glyph-name="hyphen" unicode="-" horiz-adv-x="487" 
d="M76 234v90h335v-90h-335z" />
    <glyph glyph-name="period" unicode="." horiz-adv-x="245" 
d="M74 0v107h97v-107h-97z" />
    <glyph glyph-name="slash" unicode="/" horiz-adv-x="422" 
d="M35 -19l279 755h73l-279 -755h-73z" />
    <glyph glyph-name="zero" unicode="0" horiz-adv-x="678" 
d="M66 354q0 169 68 270q69 101 205 101t205 -101q69 -100 69 -270t-70 -270t-204 -100t-204 100q-69 100 -69 270zM524 356q0 155 -52 222q-51 67 -133 67t-134 -67q-51 -68 -51 -222q0 -137 48 -213t137 -76t137 76t48 213z" />
    <glyph glyph-name="one" unicode="1" horiz-adv-x="377" 
d="M179 0v547h-144v75h75q38 0 61.5 26t23.5 65h72v-713h-88z" />
    <glyph glyph-name="two" unicode="2" horiz-adv-x="599" 
d="M149 498h-86v18q0 90 64 148q65 60 171 60q104 0 167 -57q64 -55 64 -151q0 -102 -56 -152q-27 -25 -56 -42q-19 -11 -74 -37q-107 -47 -138 -76q-30 -30 -30 -90v-37l362 1v-83h-460v121q0 84 45 132q46 48 165 96q61 27 64 29q19 10 45 30q44 36 44 108q0 62 -39.5 97
t-103.5 35q-66 0 -107 -37.5t-41 -99.5v-13z" />
    <glyph glyph-name="three" unicode="3" horiz-adv-x="586" 
d="M281 -15q-97 0 -155.5 49t-77.5 138l85 14q28 -124 152 -124q69 0 111.5 41t42.5 111t-40.5 109.5t-106.5 39.5q-48 0 -83 -18l-42 53l219 232h-315v84h422v-81l-191 -204q30 3 58 -4q76 -12 121 -68t45 -148q0 -102 -67 -163q-65 -61 -178 -61z" />
    <glyph glyph-name="four" unicode="4" horiz-adv-x="614" 
d="M385 0v172h-346v83l224 458h210v-459h90v-82h-90v-172h-88zM130 254h255v380h-68z" />
    <glyph glyph-name="five" unicode="5" horiz-adv-x="601" 
d="M290 -16q-83 0 -141 42t-82 117l84 28q41 -108 147 -108q74 0 113.5 42t39.5 121q0 73 -37.5 115.5t-112.5 42.5q-86 0 -136 -68l-82 22v374h418v-85h-334v-235q29 37 64.5 53t96.5 16q101 0 160 -63t59 -172q0 -112 -67.5 -177t-189.5 -65z" />
    <glyph glyph-name="six" unicode="6" horiz-adv-x="614" 
d="M318 -16q-127 0 -189 88t-62 270q0 183 67 283t191 100q85 0 139 -39t72 -111l-87 -23q-26 96 -125 96q-169 0 -169 -312q23 52 69 83.5t109 31.5q92 0 157 -59q64 -58 64 -171q0 -109 -64 -173t-172 -64zM318 61q68 0 107 42.5t39 113.5q0 75 -38.5 118.5t-106.5 43.5
q-65 0 -105.5 -43t-40.5 -116q0 -66 36 -112q38 -47 109 -47z" />
    <glyph glyph-name="seven" unicode="7" horiz-adv-x="516" 
d="M187 0v203q0 126 57 210l143 219h-362v82h466v-75l-158 -249q-58 -91 -58 -187v-203h-88z" />
    <glyph glyph-name="eight" unicode="8" horiz-adv-x="624" 
d="M312 -16q-111 0 -181 56q-68 57 -68 148q0 72 39 121q39 48 93 65q-37 16 -73 56q-34 40 -34 103q0 88 62 141t162 53t162 -53q61 -52 61 -141q0 -61 -33 -102q-32 -39 -69 -57q52 -17 88 -65q39 -49 39 -121q0 -92 -69 -148q-70 -56 -179 -56zM312 408q64 0 101.5 31.5
t37.5 87.5q0 59 -37.5 92t-101.5 33q-65 0 -102.5 -33.5t-37.5 -92.5q0 -56 38 -87t102 -31zM312 59q73 0 116 35.5t43 97.5q0 64 -41.5 102t-117.5 38t-118 -38.5t-42 -102.5q0 -62 43.5 -97t116.5 -35z" />
    <glyph glyph-name="nine" unicode="9" horiz-adv-x="618" 
d="M292 -16q-88 0 -146 40.5t-73 112.5l82 23q24 -98 139 -98q85 0 125 73.5t45 238.5q-12 -53 -60 -86t-119 -33q-105 0 -163 61t-58 173q0 111 62.5 173.5t170.5 62.5q127 0 190 -88t63 -270q0 -186 -66.5 -284.5t-191.5 -98.5zM298 327q67 0 107 44.5t40 116.5
q0 65 -37 112q-36 49 -109 48q-69 -1 -107 -43.5t-38 -114.5q0 -73 38 -118t106 -45z" />
    <glyph glyph-name="colon" unicode=":" horiz-adv-x="250" 
d="M76 419v107h98v-107h-98zM76 1v107h98v-107h-98z" />
    <glyph glyph-name="semicolon" unicode=";" horiz-adv-x="286" 
d="M104 419v107h98v-107h-98zM52 -137l51 251h95l-76 -251h-70z" />
    <glyph glyph-name="less" unicode="&#x3c;" horiz-adv-x="497" 
d="M430 3l-391 216v71l391 214v-74l-318 -177l318 -176v-74z" />
    <glyph glyph-name="equal" unicode="=" horiz-adv-x="552" 
d="M80 319v76h392v-76h-392zM80 117v76h392v-76h-392z" />
    <glyph glyph-name="greater" unicode="&#x3e;" horiz-adv-x="497" 
d="M66 3v74l319 176l-319 177v74l392 -214v-71z" />
    <glyph glyph-name="question" unicode="?" horiz-adv-x="510" 
d="M200 187v93q0 33 18.5 60.5t45.5 47.5l54 40t45.5 47t18.5 60q0 56 -34.5 90t-90.5 34q-66 0 -102 -36.5t-36 -105.5l-85 -1q0 101 59.5 159.5t162.5 58.5q96 0 155 -56t59 -143q0 -42 -18.5 -76.5t-45 -58t-53.5 -43t-45.5 -40.5t-18.5 -42v-88h-89zM196 0v106h97v-106
h-97z" />
    <glyph glyph-name="at" unicode="@" horiz-adv-x="813" 
d="M412 -151q-152 0 -255 103q-104 102 -104 272t101 283t262 113q144 0 241 -90q98 -90 98 -258q0 -115 -45 -183.5t-122 -68.5q-40 0 -67.5 18t-36.5 53q-38 -69 -116 -69q-66 0 -108 50q-41 50 -41 130q0 93 50 161t130 68q79 0 114 -69l10 54h56l-41 -261q-6 -36 8 -57
t45 -21q46 0 74 54t28 140q0 139 -75 213q-74 75 -193 75q-135 0 -221 -92q-85 -91 -85 -235q0 -143 82 -234q83 -92 217 -92q84 0 151 43l30 -44q-83 -56 -187 -56zM374 81q50 0 83 49q34 49 34 128q0 54 -22.5 84t-63.5 30q-53 0 -87 -48q-35 -49 -35 -116
q0 -58 23.5 -92.5t67.5 -34.5z" />
    <glyph glyph-name="A" unicode="A" horiz-adv-x="695" 
d="M664 0h-98l-69 202h-298l-67 -202h-99l256 714h113zM339 626l-115 -348h247l-119 348h-13z" />
    <glyph glyph-name="B" unicode="B" horiz-adv-x="670" 
d="M448 368q74 -10 118 -53.5t44 -116.5q0 -98 -61 -148t-179 -50h-264v714h244q230 0 230 -183q0 -65 -35.5 -108.5t-96.5 -54.5zM353 640h-156v-239h157q68 0 103 32t35 90q0 117 -139 117zM197 74h168q152 0 152 130q0 124 -160 124h-160v-254z" />
    <glyph glyph-name="C" unicode="C" horiz-adv-x="718" 
d="M390 -14q-158 0 -244 104q-86 106 -86 266q0 163 85 267q85 106 239 106q102 0 182 -51q79 -49 105 -155l-91 -19q-17 67 -67 103.5t-127 36.5q-110 0 -169.5 -73.5t-59.5 -209.5q0 -140 61.5 -216.5t173.5 -76.5q74 0 124 34.5t69 100.5l91 -15q-25 -96 -100 -149
t-186 -53z" />
    <glyph glyph-name="D" unicode="D" horiz-adv-x="767" 
d="M106 0v714h256q343 0 343 -355q0 -359 -343 -359h-256zM198 82h168q121 0 182.5 70t61.5 205q0 275 -252 275h-160v-550z" />
    <glyph glyph-name="E" unicode="E" horiz-adv-x="645" 
d="M106 0v714h482v-81h-390v-231h323v-81h-323v-240h391v-81h-483z" />
    <glyph glyph-name="F" unicode="F" horiz-adv-x="609" 
d="M106 0v714h468v-81h-376v-248h312v-82h-312v-303h-92z" />
    <glyph glyph-name="G" unicode="G" horiz-adv-x="753" 
d="M394 -14q-164 0 -249 103t-85 268q0 76 19.5 141.5t58 118t103.5 82.5t149 30q115 0 188 -53.5t100 -154.5l-91 -19q-45 143 -196 143q-113 0 -176 -77t-63 -214q0 -138 64 -212.5t180 -74.5q97 0 151 48q55 48 55 116v75h-199v76h286v-136q0 -111 -77 -186
q-77 -74 -218 -74z" />
    <glyph glyph-name="H" unicode="H" horiz-adv-x="794" 
d="M106 0v714h92v-314h398v314h92v-714h-92v318h-398v-318h-92z" />
    <glyph glyph-name="I" unicode="I" horiz-adv-x="305" 
d="M106 0v714h92v-714h-92z" />
    <glyph glyph-name="J" unicode="J" horiz-adv-x="600" 
d="M267 -13q-230 0 -231 247h90q0 -85 34 -125t107 -40t109 43q14 17 22 47q11 40 11 107v448h92v-466q0 -110 -48 -180q-52 -81 -186 -81z" />
    <glyph glyph-name="K" unicode="K" horiz-adv-x="692" 
d="M684 0h-114l-240 349l-132 -148v-201h-92v714h92v-390l339 390h116l-261 -294z" />
    <glyph glyph-name="L" unicode="L" horiz-adv-x="602" 
d="M106 0v714h92v-632h375v-82h-467z" />
    <glyph glyph-name="M" unicode="M" horiz-adv-x="903" 
d="M106 0v714h128l176 -340l44 -87l42 87l173 340h127v-714h-86v448l1 157l-230 -452h-56l-233 452l1 -157v-448h-87z" />
    <glyph glyph-name="N" unicode="N" horiz-adv-x="804" 
d="M106 0v714h111l328 -489l54 -86h10l-1 137v438h89v-714h-106l-317 469l-69 106h-9l1 -136v-439h-91z" />
    <glyph glyph-name="O" unicode="O" horiz-adv-x="794" 
d="M397 -14q-159 0 -249 107q-89 107 -89 265t91 264q92 107 247 107t247 -107t92 -264q0 -158 -90 -265q-89 -107 -249 -107zM397 68q112 0 178 79q67 79 67 211q0 131 -67 210q-67 81 -178 81q-109 0 -177 -81q-67 -79 -67 -210q0 -132 66 -211q67 -79 178 -79z" />
    <glyph glyph-name="P" unicode="P" horiz-adv-x="664" 
d="M106 0v714h273q116 0 180 -57t64 -160q0 -105 -63 -162t-178 -57h-184v-278h-92zM198 360h181q74 0 115 35t41 98q0 65 -40.5 101t-116.5 36h-180v-270z" />
    <glyph glyph-name="Q" unicode="Q" horiz-adv-x="795" 
d="M473 -6l15 -31q19 -38 40.5 -51.5t60.5 -13.5h76v-75h-86q-63 0 -99.5 23t-67.5 83l-29 58q-154 6 -239 112t-85 259q0 158 91 264q92 107 247 107t247 -107t92 -264q0 -140 -67 -240q-66 -100 -196 -124zM153 358q0 -132 66 -211q66 -78 178 -78t178 78q67 79 67 211
q0 131 -67 210q-68 80 -178 80q-109 0 -177 -80q-67 -79 -67 -210z" />
    <glyph glyph-name="R" unicode="R" horiz-adv-x="673" 
d="M106 0v714h262q113 0 177 -54.5t64 -151.5q0 -78 -43 -129.5t-122 -67.5l174 -311h-106l-158 298h-156v-298h-92zM198 381h167q71 0 110.5 32t39.5 89q0 131 -152 131h-165v-252z" />
    <glyph glyph-name="S" unicode="S" horiz-adv-x="647" 
d="M331 -14q-116 0 -188 51t-91 144l92 20q31 -133 189 -133q74 0 118 32t44 85q0 59 -43 86q-41 26 -148 52q-107 27 -166 66q-68 48 -68 141t67 145q68 53 178 53t178 -48.5t86 -137.5l-92 -12q-27 117 -173 117q-70 0 -111.5 -31t-41.5 -84q0 -52 38 -76q39 -23 140 -50
q121 -33 164 -58q87 -50 87 -153q0 -99 -69 -154t-190 -55z" />
    <glyph glyph-name="T" unicode="T" horiz-adv-x="616" 
d="M261 0v632h-233v82h560v-82h-235v-632h-92z" />
    <glyph glyph-name="U" unicode="U" horiz-adv-x="745" 
d="M373 -15q-135 0 -205 73t-70 211v445h91v-439q0 -100 48 -153t137 -53q93 0 137 50.5t44 155.5v439h92v-445q0 -140 -70 -212t-204 -72z" />
    <glyph glyph-name="V" unicode="V" horiz-adv-x="687" 
d="M292 0l-261 714h102l211 -620l211 620h101l-260 -714h-104z" />
    <glyph glyph-name="W" unicode="W" horiz-adv-x="950" 
d="M39 714h92l139 -589l165 589h78l169 -589l136 589h92l-172 -714h-99l-166 582l-162 -582h-97z" />
    <glyph glyph-name="X" unicode="X" horiz-adv-x="635" 
d="M21 0l237 361l-225 353h112l176 -287l172 287h110l-227 -359l237 -355h-116l-184 288l-178 -288h-114z" />
    <glyph glyph-name="Y" unicode="Y" horiz-adv-x="667" 
d="M288 0v253l-257 461h107l195 -371l196 371h106l-255 -461v-253h-92z" />
    <glyph glyph-name="Z" unicode="Z" horiz-adv-x="652" 
d="M41 0v71l438 561h-416v82h539v-72l-435 -560h437v-82h-563z" />
    <glyph glyph-name="bracketleft" unicode="[" horiz-adv-x="355" 
d="M102 -201v969h221v-73h-133v-823h133v-73h-221z" />
    <glyph glyph-name="backslash" unicode="\" horiz-adv-x="407" 
d="M297 -12l-260 739h73l260 -739h-73z" />
    <glyph glyph-name="bracketright" unicode="]" horiz-adv-x="355" 
d="M32 767h221v-970h-221v74h133v822h-133v74z" />
    <glyph glyph-name="underscore" unicode="_" horiz-adv-x="394" 
d="M-6 -127v46h406v-46h-406z" />
    <glyph glyph-name="grave" unicode="`" horiz-adv-x="600" 
d="M245 600l-106 137h93l87 -137h-74z" />
    <glyph glyph-name="a" unicode="a" horiz-adv-x="592" 
d="M224 -15q-82 0 -129 44.5t-47 117.5q0 72 51 113.5t138 41.5h173v36q0 69 -35.5 103.5t-99.5 34.5q-103 0 -148 -78l-66 46q66 115 216 115q101 0 161.5 -56.5t60.5 -156.5v-223q0 -43 34 -43h48v-80h-71q-43 0 -66 19.5t-31 62.5q-72 -97 -189 -97zM246 61q81 0 164 80
v93h-149q-57 0 -89.5 -23t-32.5 -64q0 -40 28 -63t79 -23z" />
    <glyph glyph-name="b" unicode="b" horiz-adv-x="643" 
d="M353 -15q-59 0 -108.5 29t-76.5 78v-92h-78v760h90v-313q22 49 68 80t110 31q106 0 169 -80q63 -79 63 -208q0 -132 -65 -209q-64 -76 -172 -76zM339 61q77 0 118 55t41 154q0 101 -42.5 156t-116.5 55q-75 0 -119 -55t-44 -156q0 -98 42.5 -153.5t120.5 -55.5z" />
    <glyph glyph-name="c" unicode="c" horiz-adv-x="583" 
d="M309 -15q-118 0 -188 76q-69 77 -69 206q0 130 69 211t188 81q87 0 147.5 -45.5t83.5 -129.5l-86 -13q-15 51 -53 80t-92 29q-76 0 -121 -55t-45 -151q0 -95 44 -152.5t122 -57.5q55 0 95 29t54 80l87 -13q-19 -83 -81 -129t-155 -46z" />
    <glyph glyph-name="d" unicode="d" horiz-adv-x="642" 
d="M294 -13q-113 0 -178 77q-63 76 -63 208q0 121 59 204q60 82 178 82q63 0 107 -27.5t66 -71.5v301h89v-760h-84v99q-46 -112 -174 -112zM307 63q78 0 119 55.5t41 156.5q0 99 -42 152.5t-117 53.5q-77 0 -120 -54.5t-43 -153.5q0 -101 41.5 -155.5t120.5 -54.5z" />
    <glyph glyph-name="e" unicode="e" horiz-adv-x="602" 
d="M316 -15q-121 0 -193 77q-71 77 -71 207q0 132 70 211t190 79q110 0 173 -75q64 -73 64 -200q0 -16 -2 -38h-401q2 -84 48.5 -133.5t124.5 -49.5q105 0 154 93l75 -35q-32 -64 -93.5 -100t-138.5 -36zM146 316h312q0 79 -40 123t-112 44q-70 0 -112.5 -44.5t-47.5 -122.5
z" />
    <glyph glyph-name="f" unicode="f" horiz-adv-x="431" 
d="M125 0v463h-96v80h96v66q0 71 40 113t113 42h147v-81h-135q-76 0 -76 -85v-55h196v-80h-196v-463h-89z" />
    <glyph glyph-name="g" unicode="g" horiz-adv-x="646" 
d="M314 -234q-93 0 -157 39t-90 114l82 27q36 -102 162 -102q76 0 117 41.5t41 123.5v93q-45 -106 -167 -106q-119 0 -183.5 74t-64.5 204q0 132 63.5 208.5t179.5 76.5q123 0 179 -111v95h81v-534q0 -119 -68 -181t-175 -62zM311 71q159 0 159 206q0 103 -42.5 156.5
t-116.5 53.5q-77 0 -120.5 -57t-43.5 -156q0 -98 43 -150.5t121 -52.5z" />
    <glyph glyph-name="h" unicode="h" horiz-adv-x="641" 
d="M90 0v760h87l1 -309q49 106 179 106q200 0 200 -232v-325h-89v323q0 81 -33 120t-102 39q-75 0 -114 -42.5t-39 -126.5v-313h-90z" />
    <glyph glyph-name="i" unicode="i" horiz-adv-x="297" 
d="M87 639v106h92v-106h-92zM265 0h-70q-53 1 -79.5 28.5t-26.5 77.5v437h90v-423q0 -24 8 -32.5t32 -8.5h46v-79z" />
    <glyph glyph-name="j" unicode="j" horiz-adv-x="340" 
d="M159 639v106h92v-106h-92zM27 543h223v-580q0 -80 -34.5 -120.5t-109.5 -40.5h-93v80h82q66 0 66 77v502h-134v82z" />
    <glyph glyph-name="k" unicode="k" horiz-adv-x="558" 
d="M552 0h-108l-178 244l-86 -99v-145h-90v760h90v-493l237 277h111l-204 -233z" />
    <glyph glyph-name="l" unicode="l" horiz-adv-x="331" 
d="M311 0h-93q-64 0 -97 34t-33 98v628h90v-619q0 -33 12.5 -47.5t40.5 -14.5h80v-79z" />
    <glyph glyph-name="m" unicode="m" horiz-adv-x="970" 
d="M90 0v543h81v-99q25 60 66 86.5t109 26.5q66 0 109 -32t59 -90q18 56 64.5 89t115.5 33q102 0 147.5 -55.5t45.5 -164.5v-337h-90v334q0 74 -30.5 109.5t-95.5 35.5q-137 0 -137 -149v-330h-90v330q0 149 -125 149q-68 0 -103.5 -42t-35.5 -119v-318h-90z" />
    <glyph glyph-name="n" unicode="n" horiz-adv-x="641" 
d="M90 0v543h78v-109q45 123 188 123q201 0 201 -225v-332h-89v336q0 143 -136 143q-152 0 -152 -181v-298h-90z" />
    <glyph glyph-name="o" unicode="o" horiz-adv-x="619" 
d="M309 -15q-123 0 -191 83q-66 84 -66 204q0 119 66 203q68 84 191 84q64 0 114.5 -24t81 -64.5t46.5 -91.5t16 -107q0 -121 -67 -204q-66 -83 -191 -83zM309 63q75 0 120.5 57.5t45.5 151.5t-45 151.5t-120 57.5t-120.5 -58t-45.5 -152t45 -151t120 -57z" />
    <glyph glyph-name="p" unicode="p" horiz-adv-x="643" 
d="M90 -202v745h81v-100q63 116 186 116q109 0 170 -79q62 -80 62 -210q0 -134 -63.5 -209t-176.5 -75q-56 0 -100.5 28.5t-70.5 73.5v-290h-88zM337 60q77 0 118.5 54t41.5 156t-41.5 158.5t-117.5 56.5t-118 -55t-42 -160q0 -101 41.5 -155.5t117.5 -54.5z" />
    <glyph glyph-name="q" unicode="q" horiz-adv-x="642" 
d="M464 -202v290q-51 -103 -171 -103q-116 0 -178 77t-62 202t62 210q63 85 179 85q59 0 105.5 -31t71.5 -84v99h81v-745h-88zM305 59q77 0 118.5 57t41.5 158q0 99 -42 155t-116 56q-76 0 -119 -57.5t-43 -158.5q0 -99 42 -154.5t118 -55.5z" />
    <glyph glyph-name="r" unicode="r" horiz-adv-x="417" 
d="M90 0v543h80v-88q25 88 118 88h109v-84h-125q-92 0 -92 -115v-344h-90z" />
    <glyph glyph-name="s" unicode="s" horiz-adv-x="531" 
d="M44 134l83 16q20 -89 149 -89q57 0 90.5 19.5t33.5 57.5q0 36 -30 58q-10 10 -36 18q-33 11 -94 23q-90 19 -135 54t-45 112q0 71 55 113.5t146 42.5q87 0 142.5 -40t68.5 -110l-76 -13q-23 89 -130 89q-57 0 -90 -22.5t-33 -61.5q0 -41 31 -57q32 -17 112 -33
q86 -18 137 -50q60 -37 60 -122q0 -74 -57.5 -114t-155.5 -40q-193 0 -226 149z" />
    <glyph glyph-name="t" unicode="t" horiz-adv-x="474" 
d="M452 0h-159q-156 0 -156 160l1 303h-117v80h119l24 143h63v-143h213v-80h-213v-297q0 -86 77 -86h148v-80z" />
    <glyph glyph-name="u" unicode="u" horiz-adv-x="620" 
d="M278 -15q-195 0 -195 231v327h89v-312q0 -86 30 -125t101 -39q68 0 102.5 42.5t34.5 121.5v312h90v-543h-81v90q-45 -105 -171 -105z" />
    <glyph glyph-name="v" unicode="v" horiz-adv-x="549" 
d="M226 0l-196 543h101l144 -445l141 445h102l-194 -543h-98z" />
    <glyph glyph-name="w" unicode="w" horiz-adv-x="817" 
d="M171 0l-136 543h97l101 -449l130 449h88l132 -449l101 449h97l-136 -543h-108l-129 432l-128 -432h-109z" />
    <glyph glyph-name="x" unicode="x" horiz-adv-x="551" 
d="M16 0l200 276l-187 267h108l139 -208l136 208h106l-181 -264l201 -279h-111l-149 217l-153 -217h-109z" />
    <glyph glyph-name="y" unicode="y" horiz-adv-x="567" 
d="M161 -196h-117v80h98q24 0 40.5 15t32.5 51l25 58l-212 535h98l159 -436l161 436h96l-249 -634q-23 -57 -53.5 -81t-78.5 -24z" />
    <glyph glyph-name="z" unicode="z" horiz-adv-x="530" 
d="M38 0v69l324 399h-301v75h414v-70l-318 -398h337v-75h-456z" />
    <glyph glyph-name="braceleft" unicode="{" horiz-adv-x="347" 
d="M311 -200h-59q-65 0 -96.5 26t-31.5 87v167q0 67 -6 94q-5 34 -22.5 50t-55.5 24v72q44 6 65 36q8 13 13 37q5 28 5 42q1 12 1 53v167q0 61 31.5 87t96.5 26h59v-69h-39q-34 0 -46.5 -19t-12.5 -64v-182q0 -68 -19 -103t-66 -47q83 -25 85 -111v-221q0 -44 13.5 -63.5
t47.5 -19.5h37v-69z" />
    <glyph glyph-name="bar" unicode="|" horiz-adv-x="270" 
d="M101 -22v753h68v-753h-68z" />
    <glyph glyph-name="braceright" unicode="}" horiz-adv-x="347" 
d="M95 -201h-59v70h36q35 0 48 19t13 63v222q1 82 86 111q-48 12 -67 46.5t-19 102.5v183q0 45 -12 63.5t-47 18.5h-38v70h59q64 0 96 -26.5t32 -87.5v-166v-53q2 -28 5 -43q7 -33 24 -48.5t55 -23.5v-73q-43 -5 -66 -36q-9 -14 -13 -37q-5 -32 -5 -95v-167q0 -61 -31.5 -87
t-96.5 -26z" />
    <glyph glyph-name="asciitilde" unicode="~" horiz-adv-x="529" 
d="M104 199l-30 65q32 71 104 71q36 0 92 -37q59 -36 86 -36q18 0 31.5 12t35.5 48l31 -65q-37 -70 -98 -70q-34 0 -89 36q-55 37 -86 37q-52 0 -77 -61z" />
    <glyph glyph-name="exclamdown" unicode="&#xa1;" horiz-adv-x="294" 
d="M194 629h-94v104h94v-104zM202 1h-107l16 488h71z" />
    <glyph glyph-name="cent" unicode="&#xa2;" horiz-adv-x="585" 
d="M459 173l88 -13q-19 -78 -75.5 -123.5t-140.5 -50.5v-144h-55v145q-104 11 -163.5 86t-59.5 194t59 199q60 79 164 91v118h55v-117q80 -5 135 -50.5t76 -123.5l-86 -13q-28 97 -125 108v-414q48 5 82 34t46 74zM145 274q0 -84 34.5 -139t96.5 -68v410q-61 -12 -96 -65.5
t-35 -137.5z" />
    <glyph glyph-name="sterling" unicode="&#xa3;" horiz-adv-x="624" 
d="M97 -12l-45 80q52 46 77.5 84t25.5 80q0 44 -15 87h-67v61h54q-33 82 -33 145q0 82 61 137q61 57 176 57q95 0 157 -43.5t79 -128.5l-89 -16q-12 53 -49.5 82t-95.5 29q-69 0 -108 -33.5t-39 -93.5q0 -54 32 -135h141v-61h-127q11 -47 9 -85q-4 -85 -82 -149
q35 24 103 24q40 0 92 -20q54 -20 88 -20q57 0 106 49l35 -72q-61 -64 -144 -64q-46 0 -111 22q-66 23 -102 23q-64 0 -129 -39z" />
    <glyph glyph-name="yen" unicode="&#xa5;" horiz-adv-x="669" 
d="M290 0v119h-193v60h193v66h-193v61h165l-229 400h106l196 -361l196 361h105l-229 -400h165v-61h-193v-66h193v-60h-193v-119h-89z" />
    <glyph glyph-name="brokenbar" unicode="&#xa6;" horiz-adv-x="270" 
d="M102 463v268h66v-268h-66zM102 -22v269h66v-269h-66z" />
    <glyph glyph-name="section" unicode="&#xa7;" horiz-adv-x="634" 
d="M90 -13l89 17q28 -104 147 -104q65 0 100 22.5t35 64.5q0 29 -17.5 46t-66.5 38l-181 80q-83 36 -116 73t-33 93q0 92 83 142q-46 37 -46 104q0 76 60.5 116t163.5 40q190 0 229 -158l-88 -15q-24 101 -141 101q-63 0 -98.5 -22.5t-35.5 -61.5q0 -27 17 -45t59 -37
l185 -82q86 -39 118 -74q35 -38 35 -96q0 -93 -82 -139q46 -37 46 -108q0 -76 -61.5 -115.5t-164.5 -39.5q-196 0 -236 160zM217 227l230 -100q57 41 57 97q0 32 -25.5 58t-84.5 53l-206 88q-58 -42 -58 -100q0 -55 87 -96z" />
    <glyph glyph-name="dieresis" unicode="&#xa8;" horiz-adv-x="600" 
d="M149 625v95h86v-95h-86zM365 625v95h86v-95h-86z" />
    <glyph glyph-name="copyright" unicode="&#xa9;" horiz-adv-x="774" 
d="M59 319q0 144 97 240q97 97 232 97q134 0 230 -97q97 -96 97 -240q0 -142 -95 -240q-94 -96 -233 -96t-233 96q-95 98 -95 240zM655 318q0 120 -78 202q-78 83 -192 83q-112 0 -189 -83q-76 -82 -76 -201q0 -121 76 -201q76 -81 191 -81t191 81q77 82 77 200zM385 147
q-71 0 -114 48q-42 50 -42 125q0 77 44 124q43 48 114 48q51 0 88 -28.5t48 -74.5h-55q-7 25 -28.5 39t-49.5 14q-47 0 -77 -34t-30 -89t29.5 -88.5t76.5 -33.5q61 0 79 54h54q-12 -50 -48 -77t-89 -27z" />
    <glyph glyph-name="ordfeminine" unicode="&#xaa;" horiz-adv-x="441" 
d="M339 620v-123q0 -33 8.5 -42t36.5 -9v-50q-15 -3 -36 -3q-40 0 -54 39q-39 -47 -119 -47q-52 0 -84 27.5t-32 72.5q0 62 57.5 91.5t163.5 16.5v29q0 36 -20 55.5t-58 19.5q-64 0 -85 -55l-50 20q12 40 47.5 63t89.5 23q63 0 99 -33.5t36 -94.5zM280 498v49
q-161 17 -161 -60q0 -24 18 -38t49 -14q39 0 66.5 19t27.5 44z" />
    <glyph glyph-name="guillemotleft" unicode="&#xab;" horiz-adv-x="482" 
d="M162 99l-115 169l115 170h70l-106 -170l106 -169h-70zM340 99l-115 169l115 170h70l-106 -170l106 -169h-70z" />
    <glyph glyph-name="logicalnot" unicode="&#xac;" horiz-adv-x="581" 
d="M82 220v75h416v-184h-65v109h-351z" />
    <glyph glyph-name="registered" unicode="&#xae;" horiz-adv-x="777" 
d="M388 -15q-138 0 -234 97q-95 98 -95 240q0 145 97 239q98 95 233 95t231 -96q97 -94 97 -239q0 -142 -95 -240q-94 -96 -234 -96zM388 35q117 0 195 82q78 83 78 203q0 122 -79 204q-78 83 -196 83q-116 0 -193 -83t-77 -203q0 -121 78 -204q78 -82 194 -82zM268 165v322
h138q57 0 87.5 -24.5t30.5 -72.5q0 -37 -17.5 -62t-49.5 -32l69 -131h-60l-62 123h-83v-123h-53zM321 335h90q62 0 62 53t-66 53h-86v-106z" />
    <glyph glyph-name="overscore" unicode="&#xaf;" horiz-adv-x="600" 
d="M112 628v59h375v-59h-375z" />
    <glyph glyph-name="degree" unicode="&#xb0;" horiz-adv-x="379" 
d="M287 490q-40 -38 -97 -38t-98 38q-39 38 -39 97t39 97q41 39 98 39q58 0 97 -39q39 -38 39 -97t-39 -97zM276 587q0 39 -24.5 65t-61.5 26q-38 0 -63 -26t-25 -65t25.5 -64.5t62.5 -25.5q36 0 61 25.5t25 64.5z" />
    <glyph glyph-name="plusminus" unicode="&#xb1;" horiz-adv-x="554" 
d="M240 146v183h-170v66h170v179h73v-179h170v-66h-170v-183h-73zM68 -2v62h417v-62h-417z" />
    <glyph glyph-name="uni00B2" unicode="&#xb2;" horiz-adv-x="365" 
d="M104 589l-51 1q0 55 36 90.5t95 35.5q58 0 93.5 -31.5t35.5 -84.5q0 -38 -16 -63q-10 -17 -22.5 -28.5t-24 -18t-41.5 -20.5q-59 -24 -75 -40t-16 -49v-18h199v-49h-256v68q0 46 25.5 73.5t90.5 54.5q46 21 60 32q24 19 24 58q0 33 -21 51.5t-57 18.5q-35 0 -57 -22
t-22 -59z" />
    <glyph glyph-name="uni00B3" unicode="&#xb3;" horiz-adv-x="359" 
d="M175 300q-112 0 -135 104l50 12q16 -69 87 -69q39 0 61.5 22.5t22.5 62.5q0 38 -22 60t-58 22q-27 0 -47 -10l-25 33l120 121h-172v52h237v-49l-100 -104q9 0 25 -4q42 -6 68 -38.5t26 -85.5q0 -58 -37.5 -93.5t-100.5 -35.5z" />
    <glyph glyph-name="acute" unicode="&#xb4;" horiz-adv-x="600" 
d="M266 600l90 137h93l-109 -137h-74z" />
    <glyph glyph-name="uni00B5" unicode="&#xb5;" horiz-adv-x="627" 
d="M447 231v312h90v-543h-81v90q-45 -105 -171 -105q-65 0 -107 24v-207h-88v741h89v-312q0 -86 30 -125t101 -39q68 0 102.5 42.5t34.5 121.5z" />
    <glyph glyph-name="paragraph" unicode="&#xb6;" horiz-adv-x="623" 
d="M263 -145v473q-114 0 -171.5 46.5t-57.5 146.5q0 192 211 192h267v-858h-68v800h-112v-800h-69z" />
    <glyph glyph-name="middot" unicode="&#xb7;" horiz-adv-x="268" 
d="M135 287q-28 0 -46.5 18.5t-18.5 44.5q0 25 19 44t46 19q26 0 44.5 -18.5t18.5 -44.5q0 -27 -18.5 -45t-44.5 -18z" />
    <glyph glyph-name="cedilla" unicode="&#xb8;" horiz-adv-x="600" 
d="M294 -227h-77v49h61q63 0 63 40q0 43 -81 37l-16 24l32 78h61l-25 -61q98 5 98 -82q0 -85 -116 -85z" />
    <glyph glyph-name="uni00B9" unicode="&#xb9;" horiz-adv-x="262" 
d="M137 310v287h-102v40q103 1 112 72h43v-399h-53z" />
    <glyph glyph-name="ordmasculine" unicode="&#xba;" horiz-adv-x="445" 
d="M223 383q-83 0 -127 53q-43 52 -43 130q0 76 43 128q44 54 127 54q81 0 125 -53t44 -129q0 -74 -44 -129q-44 -54 -125 -54zM223 696q-51 0 -79.5 -35t-28.5 -95t29 -95.5t79 -35.5t78.5 35.5t28.5 95.5t-28.5 95t-78.5 35z" />
    <glyph glyph-name="guillemotright" unicode="&#xbb;" horiz-adv-x="482" 
d="M142 438l115 -170l-115 -169h-70l105 169l-105 170h70zM320 438l115 -170l-115 -169h-70l105 169l-105 170h70z" />
    <glyph glyph-name="onequarter" unicode="&#xbc;" horiz-adv-x="798" 
d="M129 -10l395 726h57l-395 -726h-57zM136 310v287h-102v40q103 0 112 72h43v-399h-53zM658 -3v81h-193v45l147 274h98v-273h50v-46h-50v-81h-52zM521 124h137v219h-22z" />
    <glyph glyph-name="onehalf" unicode="&#xbd;" horiz-adv-x="827" 
d="M129 -10l395 726h57l-395 -726h-57zM136 310v287h-102v40q103 0 112 72h43v-399h-53zM566 277h-50q0 55 36 91t94 36t93.5 -31.5t35.5 -85.5t-25 -79q-24 -24 -78 -50q-59 -24 -75 -40t-16 -49v-18h199v-49h-257v68q0 47 25.5 74t91.5 54q39 16 59 31q24 19 24 58
q0 33 -21 52t-56 19q-36 0 -58 -22t-22 -59z" />
    <glyph glyph-name="threequarters" unicode="&#xbe;" horiz-adv-x="893" 
d="M225 -10l396 726h57l-396 -726h-57zM173 300q-57 0 -91.5 27.5t-43.5 76.5l50 12q16 -69 87 -69q39 0 61.5 22.5t22.5 62.5q0 38 -22 60t-58 22q-27 0 -47 -10l-25 33l120 121h-172v52h237v-49l-101 -104q9 0 26 -4q42 -6 68 -38.5t26 -85.5q0 -58 -37.5 -93.5
t-100.5 -35.5zM755 -3v81h-192v45l147 274h97v-273h50v-46h-50v-81h-52zM619 124h136v219h-22z" />
    <glyph glyph-name="questiondown" unicode="&#xbf;" horiz-adv-x="510" 
d="M314 717v-106h-97v106h97zM310 529v-92q0 -40 -28.5 -73.5t-62.5 -54.5t-62.5 -54.5t-28.5 -73.5q0 -55 34.5 -89t90.5 -34q66 0 102 36.5t36 105.5h85q0 -100 -60 -159t-162 -59q-96 0 -155 56q-59 57 -59 144q0 35 13.5 66t33.5 51t43.5 39.5t43.5 34t33.5 33
t13.5 36.5v87h89z" />
    <glyph glyph-name="Agrave" unicode="&#xc0;" horiz-adv-x="695" 
d="M296 892l87 -136h-74l-106 136h93zM664 0h-98l-69 202h-298l-67 -202h-99l256 714h113zM339 626l-115 -348h247l-119 348h-13z" />
    <glyph glyph-name="Aacute" unicode="&#xc1;" horiz-adv-x="695" 
d="M394 896h92l-109 -137h-74zM664 0h-98l-69 202h-298l-67 -202h-99l256 714h113zM339 626l-115 -348h247l-119 348h-13z" />
    <glyph glyph-name="Acircumflex" unicode="&#xc2;" horiz-adv-x="695" 
d="M434 758l-89 95l-91 -95h-85l137 144h78l136 -144h-86zM664 0h-98l-69 202h-298l-67 -202h-99l256 714h113zM339 626l-115 -348h247l-119 348h-13z" />
    <glyph glyph-name="Atilde" unicode="&#xc3;" horiz-adv-x="695" 
d="M253 811q-45 0 -53 -41h-68q7 52 38.5 79.5t77.5 27.5q38 0 100 -27q63 -27 91 -27q46 0 55 42h68q-9 -53 -39.5 -80t-76.5 -27q-35 0 -101 26q-64 27 -92 27zM664 0h-98l-69 202h-298l-67 -202h-99l256 714h113zM339 626l-115 -348h247l-119 348h-13z" />
    <glyph glyph-name="Adieresis" unicode="&#xc4;" horiz-adv-x="695" 
d="M194 877h86v-95h-86v95zM410 877h85v-95h-85v95zM664 0h-98l-69 202h-298l-67 -202h-99l256 714h113zM339 626l-115 -348h247l-119 348h-13z" />
    <glyph glyph-name="Aring" unicode="&#xc5;" horiz-adv-x="695" 
d="M221 871q0 49 35 82t89 33t88.5 -33t34.5 -82q0 -50 -34 -82.5t-89 -32.5t-89.5 32.5t-34.5 82.5zM273 871q0 -29 20 -47.5t52 -18.5t51.5 18.5t19.5 47.5q0 28 -19.5 47t-51.5 19t-52 -19t-20 -47zM664 0h-98l-69 202h-298l-67 -202h-99l256 714h113zM339 626l-115 -348
h247l-119 348h-13z" />
    <glyph glyph-name="AE" unicode="&#xc6;" horiz-adv-x="1017" 
d="M6 0l328 708h625v-81h-394v-231h327v-81h-327v-233h395v-82h-487v172h-291l-84 -172h-92zM212 251h261v376h-91z" />
    <glyph glyph-name="Ccedilla" unicode="&#xc7;" horiz-adv-x="718" 
d="M585 203l91 -15q-25 -92 -96.5 -145t-174.5 -57l-19 -46q98 5 98 -82q0 -85 -116 -85h-77v49h61q63 0 63 40q0 43 -81 37l-16 24l27 65q-139 17 -212 117q-73 101 -73 251q0 163 85 267q85 106 239 106q65 0 122 -20q58 -19 102.5 -68t61.5 -118l-90 -19
q-17 67 -67 103.5t-127 36.5q-110 0 -170 -73.5t-60 -209.5q0 -140 61.5 -216.5t173.5 -76.5q75 0 125 34.5t69 100.5z" />
    <glyph glyph-name="Egrave" unicode="&#xc8;" horiz-adv-x="645" 
d="M308 772l-106 136h93l87 -136h-74zM106 0v714h482v-81h-390v-231h323v-81h-323v-240h391v-81h-483z" />
    <glyph glyph-name="Eacute" unicode="&#xc9;" horiz-adv-x="645" 
d="M302 775l91 137h93l-109 -137h-75zM106 0v714h482v-81h-390v-231h323v-81h-323v-240h391v-81h-483z" />
    <glyph glyph-name="Ecircumflex" unicode="&#xca;" horiz-adv-x="645" 
d="M169 774l136 144h78l136 -144h-86l-89 95l-90 -95h-85zM106 0v714h482v-81h-390v-231h323v-81h-323v-240h391v-81h-483z" />
    <glyph glyph-name="Edieresis" unicode="&#xcb;" horiz-adv-x="645" 
d="M193 798v95h86v-95h-86zM409 798v95h86v-95h-86zM106 0v714h482v-81h-390v-231h323v-81h-323v-240h391v-81h-483z" />
    <glyph glyph-name="Igrave" unicode="&#xcc;" horiz-adv-x="305" 
d="M116 775l-106 137h93l87 -137h-74zM106 0v714h92v-714h-92z" />
    <glyph glyph-name="Iacute" unicode="&#xcd;" horiz-adv-x="305" 
d="M110 779l91 137h93l-109 -137h-75zM106 0v714h92v-714h-92z" />
    <glyph glyph-name="Icircumflex" unicode="&#xce;" horiz-adv-x="305" 
d="M-24 778l137 144h78l136 -144h-86l-89 95l-90 -95h-86zM106 0v714h92v-714h-92z" />
    <glyph glyph-name="Idieresis" unicode="&#xcf;" horiz-adv-x="305" 
d="M1 802v95h86v-95h-86zM217 802v95h85v-95h-85zM106 0v714h92v-714h-92z" />
    <glyph glyph-name="Eth" unicode="&#xd0;" horiz-adv-x="787" 
d="M127 714h255q343 0 343 -355q0 -359 -343 -359h-255v324h-111v60h111v330zM219 82h167q121 0 182.5 70t61.5 205q0 275 -252 275h-159v-248h143v-60h-143v-242z" />
    <glyph glyph-name="Ntilde" unicode="&#xd1;" horiz-adv-x="804" 
d="M503 776q-35 0 -101 26q-64 27 -92 27q-45 0 -53 -41h-68q7 52 38.5 79.5t77.5 27.5q39 0 100 -27q64 -26 91 -26q46 0 55 41h68q-9 -53 -39.5 -80t-76.5 -27zM106 0v714h111l328 -489l54 -86h10l-1 137v438h89v-714h-106l-317 469l-69 106h-9l1 -136v-439h-91z" />
    <glyph glyph-name="Ograve" unicode="&#xd2;" horiz-adv-x="794" 
d="M361 774l-106 136h92l87 -136h-73zM397 -14q-159 0 -249 107q-89 107 -89 265t91 264q92 107 247 107t247 -107t92 -264q0 -158 -90 -265q-89 -107 -249 -107zM397 68q112 0 178 79q67 79 67 211q0 131 -67 210q-67 81 -178 81q-109 0 -177 -81q-67 -79 -67 -210
q0 -132 66 -211q67 -79 178 -79z" />
    <glyph glyph-name="Oacute" unicode="&#xd3;" horiz-adv-x="794" 
d="M355 777l90 137h93l-109 -137h-74zM397 -14q-159 0 -249 107q-89 107 -89 265t91 264q92 107 247 107t247 -107t92 -264q0 -158 -90 -265q-89 -107 -249 -107zM397 68q112 0 178 79q67 79 67 211q0 131 -67 210q-67 81 -178 81q-109 0 -177 -81q-67 -79 -67 -210
q0 -132 66 -211q67 -79 178 -79z" />
    <glyph glyph-name="Ocircumflex" unicode="&#xd4;" horiz-adv-x="794" 
d="M221 776l137 144h77l136 -144h-86l-89 95l-90 -95h-85zM397 -14q-159 0 -249 107q-89 107 -89 265t91 264q92 107 247 107t247 -107t92 -264q0 -158 -90 -265q-89 -107 -249 -107zM397 68q112 0 178 79q67 79 67 211q0 131 -67 210q-67 81 -178 81q-109 0 -177 -81
q-67 -79 -67 -210q0 -132 66 -211q67 -79 178 -79z" />
    <glyph glyph-name="Otilde" unicode="&#xd5;" horiz-adv-x="794" 
d="M498 776q-36 0 -102 26q-64 27 -92 27q-45 0 -53 -41h-68q8 52 39 79.5t77 27.5q38 0 101 -27q64 -26 90 -26q46 0 55 41h68q-8 -52 -38.5 -79.5t-76.5 -27.5zM397 -14q-159 0 -249 107q-89 107 -89 265t91 264q92 107 247 107t247 -107t92 -264q0 -158 -90 -265
q-89 -107 -249 -107zM397 68q112 0 178 79q67 79 67 211q0 131 -67 210q-67 81 -178 81q-109 0 -177 -81q-67 -79 -67 -210q0 -132 66 -211q67 -79 178 -79z" />
    <glyph glyph-name="Odieresis" unicode="&#xd6;" horiz-adv-x="794" 
d="M245 800v95h87v-95h-87zM461 800v95h86v-95h-86zM397 -14q-159 0 -249 107q-89 107 -89 265t91 264q92 107 247 107t247 -107t92 -264q0 -158 -90 -265q-89 -107 -249 -107zM397 68q112 0 178 79q67 79 67 211q0 131 -67 210q-67 81 -178 81q-109 0 -177 -81
q-67 -79 -67 -210q0 -132 66 -211q67 -79 178 -79z" />
    <glyph glyph-name="multiply" unicode="&#xd7;" horiz-adv-x="521" 
d="M120 61l-48 48l141 139l-141 142l48 47l141 -141l140 141l48 -47l-142 -142l142 -140l-49 -47l-140 140z" />
    <glyph glyph-name="Oslash" unicode="&#xd8;" horiz-adv-x="798" 
d="M717 687l-61 -78q81 -101 81 -251q0 -158 -90 -265q-89 -107 -248 -107q-108 0 -188 53l-48 -61l-65 47l52 67q-90 105 -90 266q0 159 91 265t248 106q117 0 199 -63l54 69zM154 358q0 -116 53 -193l339 434q-62 50 -147 50q-111 0 -178 -81q-67 -79 -67 -210zM399 68
q112 0 178 79t66 211q0 102 -44 178l-335 -429q58 -39 135 -39z" />
    <glyph glyph-name="Ugrave" unicode="&#xd9;" horiz-adv-x="745" 
d="M337 774l-106 136h93l87 -136h-74zM373 -15q-135 0 -205 73t-70 211v445h91v-439q0 -100 48 -153t137 -53q93 0 137 50.5t44 155.5v439h92v-445q0 -140 -70 -212t-204 -72z" />
    <glyph glyph-name="Uacute" unicode="&#xda;" horiz-adv-x="745" 
d="M331 777l91 137h93l-109 -137h-75zM373 -15q-135 0 -205 73t-70 211v445h91v-439q0 -100 48 -153t137 -53q93 0 137 50.5t44 155.5v439h92v-445q0 -140 -70 -212t-204 -72z" />
    <glyph glyph-name="Ucircumflex" unicode="&#xdb;" horiz-adv-x="745" 
d="M197 776l137 144h78l136 -144h-86l-89 95l-90 -95h-86zM373 -15q-135 0 -205 73t-70 211v445h91v-439q0 -100 48 -153t137 -53q93 0 137 50.5t44 155.5v439h92v-445q0 -140 -70 -212t-204 -72z" />
    <glyph glyph-name="Udieresis" unicode="&#xdc;" horiz-adv-x="745" 
d="M222 800v95h86v-95h-86zM438 800v95h86v-95h-86zM373 -15q-135 0 -205 73t-70 211v445h91v-439q0 -100 48 -153t137 -53q93 0 137 50.5t44 155.5v439h92v-445q0 -140 -70 -212t-204 -72z" />
    <glyph glyph-name="Yacute" unicode="&#xdd;" horiz-adv-x="667" 
d="M292 769l90 137h93l-109 -137h-74zM288 0v253l-257 461h107l195 -371l196 371h106l-255 -461v-253h-92z" />
    <glyph glyph-name="Thorn" unicode="&#xde;" horiz-adv-x="733" 
d="M106 0v708h92v-123h229q252 0 252 -215q0 -112 -65 -169t-186 -57h-230v-144h-92zM198 224h206q94 0 138 31.5t44 109.5q0 76 -43.5 108t-134.5 32h-210v-281z" />
    <glyph glyph-name="germandbls" unicode="&#xdf;" horiz-adv-x="596" 
d="M346 -8q-58 0 -109 22l19 78q39 -17 83 -17q54 0 84.5 31.5t30.5 90.5q0 68 -45.5 98.5t-132.5 34.5v83q66 2 104 36t38 98q0 57 -29 89t-83 32q-123 0 -125 -173l-3 -495h-88v497q0 116 58 183t162 67q85 0 142 -51t57 -138q0 -83 -45 -128q-44 -45 -102 -51
q183 -27 183 -192q0 -91 -52 -143t-147 -52z" />
    <glyph glyph-name="agrave" unicode="&#xe0;" horiz-adv-x="592" 
d="M241 606l-105 137h92l87 -137h-74zM224 -15q-82 0 -129 44.5t-47 117.5q0 72 51 113.5t138 41.5h173v36q0 69 -35.5 103.5t-99.5 34.5q-103 0 -148 -78l-66 46q66 115 216 115q101 0 161.5 -56.5t60.5 -156.5v-223q0 -43 34 -43h48v-80h-71q-43 0 -66 19.5t-31 62.5
q-72 -97 -189 -97zM246 61q81 0 164 80v93h-149q-57 0 -89.5 -23t-32.5 -64q0 -40 28 -63t79 -23z" />
    <glyph glyph-name="aacute" unicode="&#xe1;" horiz-adv-x="592" 
d="M235 610l91 137h93l-109 -137h-75zM224 -15q-82 0 -129 44.5t-47 117.5q0 72 51 113.5t138 41.5h173v36q0 69 -35.5 103.5t-99.5 34.5q-103 0 -148 -78l-66 46q66 115 216 115q101 0 161.5 -56.5t60.5 -156.5v-223q0 -43 34 -43h48v-80h-71q-43 0 -66 19.5t-31 62.5
q-72 -97 -189 -97zM246 61q81 0 164 80v93h-149q-57 0 -89.5 -23t-32.5 -64q0 -40 28 -63t79 -23z" />
    <glyph glyph-name="acircumflex" unicode="&#xe2;" horiz-adv-x="592" 
d="M102 609l137 144h77l136 -144h-86l-89 95l-90 -95h-85zM224 -15q-82 0 -129 44.5t-47 117.5q0 72 51 113.5t138 41.5h173v36q0 69 -35.5 103.5t-99.5 34.5q-103 0 -148 -78l-66 46q66 115 216 115q101 0 161.5 -56.5t60.5 -156.5v-223q0 -43 34 -43h48v-80h-71
q-43 0 -66 19.5t-31 62.5q-72 -97 -189 -97zM246 61q81 0 164 80v93h-149q-57 0 -89.5 -23t-32.5 -64q0 -40 28 -63t79 -23z" />
    <glyph glyph-name="atilde" unicode="&#xe3;" horiz-adv-x="592" 
d="M379 609q-35 0 -101 26q-64 27 -93 27q-45 0 -53 -41h-68q8 52 39 79.5t77 27.5q38 0 101 -27t90 -27q44 0 55 41h68q-8 -52 -38.5 -79t-76.5 -27zM224 -15q-82 0 -129 44.5t-47 117.5q0 72 51 113.5t138 41.5h173v36q0 69 -35.5 103.5t-99.5 34.5q-103 0 -148 -78
l-66 46q66 115 216 115q101 0 161.5 -56.5t60.5 -156.5v-223q0 -43 34 -43h48v-80h-71q-43 0 -66 19.5t-31 62.5q-72 -97 -189 -97zM246 61q81 0 164 80v93h-149q-57 0 -89.5 -23t-32.5 -64q0 -40 28 -63t79 -23z" />
    <glyph glyph-name="adieresis" unicode="&#xe4;" horiz-adv-x="592" 
d="M126 633v95h87v-95h-87zM342 633v95h86v-95h-86zM224 -15q-82 0 -129 44.5t-47 117.5q0 72 51 113.5t138 41.5h173v36q0 69 -35.5 103.5t-99.5 34.5q-103 0 -148 -78l-66 46q66 115 216 115q101 0 161.5 -56.5t60.5 -156.5v-223q0 -43 34 -43h48v-80h-71q-43 0 -66 19.5
t-31 62.5q-72 -97 -189 -97zM246 61q81 0 164 80v93h-149q-57 0 -89.5 -23t-32.5 -64q0 -40 28 -63t79 -23z" />
    <glyph glyph-name="aring" unicode="&#xe5;" horiz-adv-x="592" 
d="M153 721q0 50 34.5 83t89.5 33t89.5 -33t34.5 -83q0 -49 -35 -81.5t-89 -32.5t-89 32.5t-35 81.5zM225 674q20 -19 52 -19t52 19t20 47t-20 47q-20 20 -52 20t-52 -20q-20 -19 -20 -47t20 -47zM224 -15q-82 0 -129 44.5t-47 117.5q0 72 51 113.5t138 41.5h173v36
q0 69 -35.5 103.5t-99.5 34.5q-103 0 -148 -78l-66 46q66 115 216 115q101 0 161.5 -56.5t60.5 -156.5v-223q0 -43 34 -43h48v-80h-71q-43 0 -66 19.5t-31 62.5q-72 -97 -189 -97zM246 61q81 0 164 80v93h-149q-57 0 -89.5 -23t-32.5 -64q0 -40 28 -63t79 -23z" />
    <glyph glyph-name="ae" unicode="&#xe6;" horiz-adv-x="958" 
d="M832 158l76 -35q-34 -66 -95 -102.5t-139 -36.5q-152 0 -220 114q-28 -49 -80.5 -79.5t-125.5 -30.5q-99 0 -149.5 42.5t-50.5 116.5q0 78 50.5 121.5t138.5 43.5h173v25q0 132 -134 132q-107 0 -148 -80l-67 46q67 118 216 118q131 0 189 -90q71 95 201 95
q111 0 174 -73.5t63 -200.5l-2 -38h-399q2 -85 48.5 -135t124.5 -50q107 0 156 97zM663 482q-69 0 -112.5 -44.5t-47.5 -121.5h310q-1 79 -40.5 122.5t-109.5 43.5zM410 177v68h-149q-57 0 -89.5 -26t-32.5 -72q0 -83 115 -83q56 0 91.5 27t64.5 86z" />
    <glyph glyph-name="ccedilla" unicode="&#xe7;" horiz-adv-x="583" 
d="M458 173l87 -13q-18 -75 -71.5 -120.5t-134.5 -53.5l-20 -46q99 4 99 -82q0 -85 -116 -85h-78v49h61q63 0 63 40q0 43 -81 37l-16 24l26 64q-103 10 -165 85q-60 75 -60 195q0 130 69 211t188 81q87 0 147.5 -45.5t83.5 -129.5l-86 -13q-15 51 -53 80t-92 29
q-76 0 -121 -55t-45 -151q0 -95 44 -152.5t122 -57.5q55 0 95 29t54 80z" />
    <glyph glyph-name="egrave" unicode="&#xe8;" horiz-adv-x="602" 
d="M272 600l-106 137h93l87 -137h-74zM316 -15q-121 0 -193 77q-71 77 -71 207q0 132 70 211t190 79q110 0 173 -75q64 -73 64 -200q0 -16 -2 -38h-401q2 -84 48.5 -133.5t124.5 -49.5q105 0 154 93l75 -35q-32 -64 -93.5 -100t-138.5 -36zM146 316h312q0 79 -40 123
t-112 44q-70 0 -112.5 -44.5t-47.5 -122.5z" />
    <glyph glyph-name="eacute" unicode="&#xe9;" horiz-adv-x="602" 
d="M266 603l91 137h93l-109 -137h-75zM316 -15q-121 0 -193 77q-71 77 -71 207q0 132 70 211t190 79q110 0 173 -75q64 -73 64 -200q0 -16 -2 -38h-401q2 -84 48.5 -133.5t124.5 -49.5q105 0 154 93l75 -35q-32 -64 -93.5 -100t-138.5 -36zM146 316h312q0 79 -40 123
t-112 44q-70 0 -112.5 -44.5t-47.5 -122.5z" />
    <glyph glyph-name="ecircumflex" unicode="&#xea;" horiz-adv-x="602" 
d="M133 602l137 145h77l136 -145h-86l-89 95l-90 -95h-85zM316 -15q-121 0 -193 77q-71 77 -71 207q0 132 70 211t190 79q110 0 173 -75q64 -73 64 -200q0 -16 -2 -38h-401q2 -84 48.5 -133.5t124.5 -49.5q105 0 154 93l75 -35q-32 -64 -93.5 -100t-138.5 -36zM146 316h312
q0 79 -40 123t-112 44q-70 0 -112.5 -44.5t-47.5 -122.5z" />
    <glyph glyph-name="edieresis" unicode="&#xeb;" horiz-adv-x="602" 
d="M157 627v94h86v-94h-86zM373 627v94h86v-94h-86zM316 -15q-121 0 -193 77q-71 77 -71 207q0 132 70 211t190 79q110 0 173 -75q64 -73 64 -200q0 -16 -2 -38h-401q2 -84 48.5 -133.5t124.5 -49.5q105 0 154 93l75 -35q-32 -64 -93.5 -100t-138.5 -36zM146 316h312
q0 79 -40 123t-112 44q-70 0 -112.5 -44.5t-47.5 -122.5z" />
    <glyph glyph-name="igrave" unicode="&#xec;" horiz-adv-x="292" 
d="M99 597l-106 137h93l87 -137h-74zM254 0h-59q-53 1 -79.5 28.5t-26.5 77.5v437h90v-423q0 -24 8 -32.5t32 -8.5h35v-79z" />
    <glyph glyph-name="iacute" unicode="&#xed;" horiz-adv-x="292" 
d="M93 600l91 137h92l-109 -137h-74zM254 0h-59q-53 1 -79.5 28.5t-26.5 77.5v437h90v-423q0 -24 8 -32.5t32 -8.5h35v-79z" />
    <glyph glyph-name="icircumflex" unicode="&#xee;" horiz-adv-x="292" 
d="M-41 599l137 145h78l136 -145h-86l-89 95l-91 -95h-85zM254 0h-59q-53 1 -79.5 28.5t-26.5 77.5v437h90v-423q0 -24 8 -32.5t32 -8.5h35v-79z" />
    <glyph glyph-name="idieresis" unicode="&#xef;" horiz-adv-x="297" 
d="M-16 624v94h86v-94h-86zM200 624v94h85v-94h-85zM254 0h-59q-53 1 -79.5 28.5t-26.5 77.5v437h90v-423q0 -24 8 -32.5t32 -8.5h35v-79z" />
    <glyph glyph-name="eth" unicode="&#xf0;" horiz-adv-x="638" 
d="M437 654q141 -130 141 -354q0 -150 -68 -232.5t-192 -82.5t-195 75q-70 76 -70 202q0 122 65 196q66 75 175 75q121 0 182 -100q-25 105 -101 175q-26 22 -57 42l-111 -65l-30 38l92 53q-38 18 -102 39l46 58q69 -19 132 -53l103 60l27 -39l-84 -49q16 -12 47 -38z
M314 62q80 0 125 52.5t45 144.5q0 93 -45 147.5t-127 54.5q-79 0 -123.5 -53t-44.5 -145q0 -93 46 -147t124 -54z" />
    <glyph glyph-name="ntilde" unicode="&#xf1;" horiz-adv-x="641" 
d="M429 609q-37 0 -101 27t-92 27q-44 0 -53 -42h-68q7 52 38.5 79.5t77.5 27.5q39 0 100 -27q64 -26 91 -26q46 0 55 41h68q-9 -52 -39.5 -79.5t-76.5 -27.5zM90 0v543h78v-109q45 123 188 123q201 0 201 -225v-332h-89v336q0 143 -136 143q-152 0 -152 -181v-298h-90z" />
    <glyph glyph-name="ograve" unicode="&#xf2;" horiz-adv-x="619" 
d="M274 601l-106 137h93l87 -137h-74zM309 -15q-123 0 -191 83q-66 84 -66 204q0 119 66 203q68 84 191 84q64 0 114.5 -24t81 -64.5t46.5 -91.5t16 -107q0 -121 -67 -204q-66 -83 -191 -83zM309 63q75 0 120.5 57.5t45.5 151.5t-45 151.5t-120 57.5t-120.5 -58t-45.5 -152
t45 -151t120 -57z" />
    <glyph glyph-name="oacute" unicode="&#xf3;" horiz-adv-x="619" 
d="M268 605l91 137h92l-108 -137h-75zM309 -15q-123 0 -191 83q-66 84 -66 204q0 119 66 203q68 84 191 84q64 0 114.5 -24t81 -64.5t46.5 -91.5t16 -107q0 -121 -67 -204q-66 -83 -191 -83zM309 63q75 0 120.5 57.5t45.5 151.5t-45 151.5t-120 57.5t-120.5 -58t-45.5 -152
t45 -151t120 -57z" />
    <glyph glyph-name="ocircumflex" unicode="&#xf4;" horiz-adv-x="619" 
d="M134 604l137 144h78l136 -144h-86l-89 95l-91 -95h-85zM309 -15q-123 0 -191 83q-66 84 -66 204q0 119 66 203q68 84 191 84q64 0 114.5 -24t81 -64.5t46.5 -91.5t16 -107q0 -121 -67 -204q-66 -83 -191 -83zM309 63q75 0 120.5 57.5t45.5 151.5t-45 151.5t-120 57.5
t-120.5 -58t-45.5 -152t45 -151t120 -57z" />
    <glyph glyph-name="otilde" unicode="&#xf5;" horiz-adv-x="619" 
d="M411 604q-35 0 -101 26q-64 27 -92 27q-45 0 -53 -41h-68q7 52 38.5 79.5t77.5 27.5q38 0 100 -27q63 -27 91 -27q44 0 55 41h68q-9 -52 -39.5 -79t-76.5 -27zM309 -15q-123 0 -191 83q-66 84 -66 204q0 119 66 203q68 84 191 84q64 0 114.5 -24t81 -64.5t46.5 -91.5
t16 -107q0 -121 -67 -204q-66 -83 -191 -83zM309 63q75 0 120.5 57.5t45.5 151.5t-45 151.5t-120 57.5t-120.5 -58t-45.5 -152t45 -151t120 -57z" />
    <glyph glyph-name="odieresis" unicode="&#xf6;" horiz-adv-x="619" 
d="M159 628v95h86v-95h-86zM375 628v95h85v-95h-85zM309 -15q-123 0 -191 83q-66 84 -66 204q0 119 66 203q68 84 191 84q64 0 114.5 -24t81 -64.5t46.5 -91.5t16 -107q0 -121 -67 -204q-66 -83 -191 -83zM309 63q75 0 120.5 57.5t45.5 151.5t-45 151.5t-120 57.5
t-120.5 -58t-45.5 -152t45 -151t120 -57z" />
    <glyph glyph-name="divide" unicode="&#xf7;" horiz-adv-x="551" 
d="M224 454q0 22 16 38.5t39 16.5q22 0 38 -16.5t16 -38.5q0 -23 -15.5 -38.5t-38.5 -15.5t-39 15.5t-16 38.5zM68 219v78h416v-78h-416zM224 48q0 22 16 38.5t39 16.5q22 0 38 -16.5t16 -38.5q0 -23 -15.5 -38.5t-38.5 -15.5t-39 15.5t-16 38.5z" />
    <glyph glyph-name="oslash" unicode="&#xf8;" horiz-adv-x="621" 
d="M547 526l-41 -56q62 -79 62 -198q0 -121 -67 -203q-66 -83 -191 -83q-79 0 -138 37l-32 -43l-52 38l35 46q-71 80 -71 208q0 120 66 203q68 84 192 84q87 0 150 -45l38 50zM144 272q0 -80 33 -135l232 309q-41 35 -99 35q-75 0 -120.5 -57.5t-45.5 -151.5zM310 63
q76 0 120.5 57t44.5 152q0 72 -26 122l-227 -305q38 -26 88 -26z" />
    <glyph glyph-name="ugrave" unicode="&#xf9;" horiz-adv-x="620" 
d="M271 587l-106 137h93l87 -137h-74zM278 -15q-195 0 -195 231v327h89v-312q0 -86 30 -125t101 -39q68 0 102.5 42.5t34.5 121.5v312h90v-543h-81v90q-45 -105 -171 -105z" />
    <glyph glyph-name="uacute" unicode="&#xfa;" horiz-adv-x="620" 
d="M265 591l91 137h92l-109 -137h-74zM278 -15q-195 0 -195 231v327h89v-312q0 -86 30 -125t101 -39q68 0 102.5 42.5t34.5 121.5v312h90v-543h-81v90q-45 -105 -171 -105z" />
    <glyph glyph-name="ucircumflex" unicode="&#xfb;" horiz-adv-x="620" 
d="M131 590l137 144h78l135 -144h-85l-90 95l-90 -95h-85zM278 -15q-195 0 -195 231v327h89v-312q0 -86 30 -125t101 -39q68 0 102.5 42.5t34.5 121.5v312h90v-543h-81v90q-45 -105 -171 -105z" />
    <glyph glyph-name="udieresis" unicode="&#xfc;" horiz-adv-x="620" 
d="M155 614v95h87v-95h-87zM372 614v95h85v-95h-85zM278 -15q-195 0 -195 231v327h89v-312q0 -86 30 -125t101 -39q68 0 102.5 42.5t34.5 121.5v312h90v-543h-81v90q-45 -105 -171 -105z" />
    <glyph glyph-name="yacute" unicode="&#xfd;" horiz-adv-x="565" 
d="M247 592l91 137h93l-109 -137h-75zM161 -196h-117v80h98q24 0 40.5 15t32.5 51l25 58l-212 535h98l159 -436l161 436h96l-249 -634q-23 -57 -53.5 -81t-78.5 -24z" />
    <glyph glyph-name="thorn" unicode="&#xfe;" horiz-adv-x="657" 
d="M90 -206v954h88v-308q22 56 71.5 87t118.5 31q112 0 174 -77t62 -211q0 -133 -65 -209t-179 -76q-60 0 -108 27.5t-74 77.5v-296h-88zM346 59q79 0 122.5 54.5t43.5 156.5t-43 158t-123 56q-77 0 -122.5 -50t-45.5 -141v-40q0 -92 45 -143t123 -51z" />
    <glyph glyph-name="ydieresis" unicode="&#xff;" horiz-adv-x="565" 
d="M138 615v95h86v-95h-86zM354 615v95h86v-95h-86zM161 -196h-117v80h98q24 0 40.5 15t32.5 51l25 58l-212 535h98l159 -436l161 436h96l-249 -634q-23 -57 -53.5 -81t-78.5 -24z" />
    <glyph glyph-name="Amacron" unicode="&#x100;" horiz-adv-x="695" 
d="M157 843h375v-59h-375v59zM664 0h-98l-69 202h-298l-67 -202h-99l256 714h113zM339 626l-115 -348h247l-119 348h-13z" />
    <glyph glyph-name="amacron" unicode="&#x101;" horiz-adv-x="592" 
d="M89 635v59h376v-59h-376zM224 -15q-82 0 -129 44.5t-47 117.5q0 72 51 113.5t138 41.5h173v36q0 69 -35.5 103.5t-99.5 34.5q-103 0 -148 -78l-66 46q66 115 216 115q101 0 161.5 -56.5t60.5 -156.5v-223q0 -43 34 -43h48v-80h-71q-43 0 -66 19.5t-31 62.5
q-72 -97 -189 -97zM246 61q81 0 164 80v93h-149q-57 0 -89.5 -23t-32.5 -64q0 -40 28 -63t79 -23z" />
    <glyph glyph-name="Abreve" unicode="&#x102;" horiz-adv-x="695" 
d="M341 770q-71 0 -115 36.5t-54 91.5h65q6 -35 37.5 -55t66.5 -20t66 20t37 55h65q-10 -55 -53.5 -91.5t-114.5 -36.5zM664 0h-98l-69 202h-298l-67 -202h-99l256 714h113zM339 626l-115 -348h247l-119 348h-13z" />
    <glyph glyph-name="abreve" unicode="&#x103;" horiz-adv-x="592" 
d="M104 749h65q8 -35 38.5 -55t65.5 -20t65.5 20t38.5 55h65q-10 -55 -54 -91.5t-115 -36.5t-115 36.5t-54 91.5zM224 -15q-82 0 -129 44.5t-47 117.5q0 72 51 113.5t138 41.5h173v36q0 69 -35.5 103.5t-99.5 34.5q-103 0 -148 -78l-66 46q66 115 216 115q101 0 161.5 -56.5
t60.5 -156.5v-223q0 -43 34 -43h48v-80h-71q-43 0 -66 19.5t-31 62.5q-72 -97 -189 -97zM246 61q81 0 164 80v93h-149q-57 0 -89.5 -23t-32.5 -64q0 -40 28 -63t79 -23z" />
    <glyph glyph-name="Aogonek" unicode="&#x104;" horiz-adv-x="695" 
d="M658 -157l14 -43q-38 -15 -77 -15q-52 0 -83 26.5t-31 72.5q0 30 24.5 62t63.5 54h-3l-69 202h-298l-67 -202h-99l256 714h113l262 -714h-1q-104 -59 -104 -114q0 -24 14.5 -37.5t38.5 -13.5q16 0 46 8zM339 626l-115 -348h247l-119 348h-13z" />
    <glyph glyph-name="aogonek" unicode="&#x105;" horiz-adv-x="592" 
d="M576 -160l14 -43q-38 -15 -77 -15q-52 0 -83 26.5t-31 72.5q0 31 26.5 63.5t67.5 56.5q-35 3 -53.5 22t-26.5 59q-72 -97 -189 -97q-82 0 -129 44.5t-47 117.5q0 72 51 113.5t138 41.5h173v36q0 69 -35.5 103.5t-99.5 34.5q-103 0 -148 -78l-66 46q66 115 216 115
q101 0 161.5 -56.5t60.5 -156.5v-223q0 -43 34 -43h48v-80h-13l13 -3q-104 -59 -104 -114q0 -24 14.5 -37.5t39.5 -13.5q15 0 45 8zM410 141v93h-149q-57 0 -89.5 -23t-32.5 -64q0 -40 28 -63t79 -23q81 0 164 80z" />
    <glyph glyph-name="Cacute" unicode="&#x106;" horiz-adv-x="718" 
d="M345 777l91 137h93l-109 -137h-75zM390 -14q-158 0 -244 104q-86 106 -86 266q0 163 85 267q85 106 239 106q102 0 182 -51q79 -49 105 -155l-91 -19q-17 67 -67 103.5t-127 36.5q-110 0 -169.5 -73.5t-59.5 -209.5q0 -140 61.5 -216.5t173.5 -76.5q74 0 124 34.5
t69 100.5l91 -15q-25 -96 -100 -149t-186 -53z" />
    <glyph glyph-name="cacute" unicode="&#x107;" horiz-adv-x="583" 
d="M267 604l90 137h93l-109 -137h-74zM309 -15q-118 0 -188 76q-69 77 -69 206q0 130 69 211t188 81q87 0 147.5 -45.5t83.5 -129.5l-86 -13q-15 51 -53 80t-92 29q-76 0 -121 -55t-45 -151q0 -95 44 -152.5t122 -57.5q55 0 95 29t54 80l87 -13q-19 -83 -81 -129t-155 -46z
" />
    <glyph glyph-name="Ccircumflex" unicode="&#x108;" horiz-adv-x="718" 
d="M212 776l137 144h77l136 -144h-86l-89 95l-90 -95h-85zM390 -14q-158 0 -244 104q-86 106 -86 266q0 163 85 267q85 106 239 106q102 0 182 -51q79 -49 105 -155l-91 -19q-17 67 -67 103.5t-127 36.5q-110 0 -169.5 -73.5t-59.5 -209.5q0 -140 61.5 -216.5t173.5 -76.5
q74 0 124 34.5t69 100.5l91 -15q-25 -96 -100 -149t-186 -53z" />
    <glyph glyph-name="ccircumflex" unicode="&#x109;" horiz-adv-x="583" 
d="M133 603l137 145h77l136 -145h-86l-89 95l-90 -95h-85zM309 -15q-118 0 -188 76q-69 77 -69 206q0 130 69 211t188 81q87 0 147.5 -45.5t83.5 -129.5l-86 -13q-15 51 -53 80t-92 29q-76 0 -121 -55t-45 -151q0 -95 44 -152.5t122 -57.5q55 0 95 29t54 80l87 -13
q-19 -83 -81 -129t-155 -46z" />
    <glyph glyph-name="Cdotaccent" unicode="&#x10a;" horiz-adv-x="718" 
d="M342 810v107h92v-107h-92zM390 -14q-158 0 -244 104q-86 106 -86 266q0 163 85 267q85 106 239 106q102 0 182 -51q79 -49 105 -155l-91 -19q-17 67 -67 103.5t-127 36.5q-110 0 -169.5 -73.5t-59.5 -209.5q0 -140 61.5 -216.5t173.5 -76.5q74 0 124 34.5t69 100.5
l91 -15q-25 -96 -100 -149t-186 -53z" />
    <glyph glyph-name="cdotaccent" unicode="&#x10b;" horiz-adv-x="583" 
d="M264 637v107h91v-107h-91zM309 -15q-118 0 -188 76q-69 77 -69 206q0 130 69 211t188 81q87 0 147.5 -45.5t83.5 -129.5l-86 -13q-15 51 -53 80t-92 29q-76 0 -121 -55t-45 -151q0 -95 44 -152.5t122 -57.5q55 0 95 29t54 80l87 -13q-19 -83 -81 -129t-155 -46z" />
    <glyph glyph-name="Ccaron" unicode="&#x10c;" horiz-adv-x="718" 
d="M350 782l-131 134h84l83 -84l84 84h85l-132 -134h-73zM390 -14q-158 0 -244 104q-86 106 -86 266q0 163 85 267q85 106 239 106q102 0 182 -51q79 -49 105 -155l-91 -19q-17 67 -67 103.5t-127 36.5q-110 0 -169.5 -73.5t-59.5 -209.5q0 -140 61.5 -216.5t173.5 -76.5
q74 0 124 34.5t69 100.5l91 -15q-25 -96 -100 -149t-186 -53z" />
    <glyph glyph-name="ccaron" unicode="&#x10d;" horiz-adv-x="583" 
d="M271 609l-131 134h84l83 -83l84 83h85l-132 -134h-73zM309 -15q-118 0 -188 76q-69 77 -69 206q0 130 69 211t188 81q87 0 147.5 -45.5t83.5 -129.5l-86 -13q-15 51 -53 80t-92 29q-76 0 -121 -55t-45 -151q0 -95 44 -152.5t122 -57.5q55 0 95 29t54 80l87 -13
q-19 -83 -81 -129t-155 -46z" />
    <glyph glyph-name="Dcaron" unicode="&#x10e;" horiz-adv-x="767" 
d="M318 782l-132 134h85l83 -84l84 84h85l-132 -134h-73zM106 0v714h256q343 0 343 -355q0 -359 -343 -359h-256zM198 82h168q121 0 182.5 70t61.5 205q0 275 -252 275h-160v-550z" />
    <glyph glyph-name="dcaron" unicode="&#x10f;" horiz-adv-x="662" 
d="M623 616l24 145h77l-46 -145h-55zM294 -13q-113 0 -178 77q-63 76 -63 208q0 121 59 204q60 82 178 82q63 0 107 -27.5t66 -71.5v301h89v-760h-84v99q-46 -112 -174 -112zM307 63q78 0 119 55.5t41 156.5q0 99 -42 152.5t-117 53.5q-77 0 -120 -54.5t-43 -153.5
q0 -101 41.5 -155.5t120.5 -54.5z" />
    <glyph glyph-name="Dcroat" unicode="&#x110;" horiz-adv-x="787" 
d="M127 714h255q343 0 343 -355q0 -359 -343 -359h-255v324h-111v60h111v330zM219 82h167q121 0 182.5 70t61.5 205q0 275 -252 275h-159v-248h143v-60h-143v-242z" />
    <glyph glyph-name="dslash" unicode="&#x111;" horiz-adv-x="642" 
d="M552 676h78v-59h-78v-617h-84v99q-46 -112 -174 -112q-113 0 -178 77q-63 76 -63 208q0 121 59 204q60 82 178 82q63 0 107 -27.5t66 -71.5v158h-178v59h178v84h89v-84zM307 63q78 0 119 55.5t41 156.5q0 99 -42 152.5t-117 53.5q-77 0 -120 -54.5t-43 -153.5
q0 -101 41.5 -155.5t120.5 -54.5z" />
    <glyph glyph-name="Emacron" unicode="&#x112;" horiz-adv-x="645" 
d="M156 800v59h375v-59h-375zM106 0v714h482v-81h-390v-231h323v-81h-323v-240h391v-81h-483z" />
    <glyph glyph-name="emacron" unicode="&#x113;" horiz-adv-x="602" 
d="M120 628v59h376v-59h-376zM316 -15q-121 0 -193 77q-71 77 -71 207q0 132 70 211t190 79q110 0 173 -75q64 -73 64 -200q0 -16 -2 -38h-401q2 -84 48.5 -133.5t124.5 -49.5q105 0 154 93l75 -35q-32 -64 -93.5 -100t-138.5 -36zM146 316h312q0 79 -40 123t-112 44
q-70 0 -112.5 -44.5t-47.5 -122.5z" />
    <glyph glyph-name="Ebreve" unicode="&#x114;" horiz-adv-x="645" 
d="M171 914h65q6 -35 37.5 -55t66.5 -20t66 20t37 55h66q-10 -55 -54 -91.5t-115 -36.5t-115 36.5t-54 91.5zM106 0v714h482v-81h-390v-231h323v-81h-323v-240h391v-81h-483z" />
    <glyph glyph-name="ebreve" unicode="&#x115;" horiz-adv-x="602" 
d="M135 742h65q8 -35 38.5 -54.5t65.5 -19.5t65.5 19.5t38.5 54.5h65q-12 -56 -55.5 -91.5t-113.5 -35.5t-113.5 35.5t-55.5 91.5zM316 -15q-121 0 -193 77q-71 77 -71 207q0 132 70 211t190 79q110 0 173 -75q64 -73 64 -200q0 -16 -2 -38h-401q2 -84 48.5 -133.5
t124.5 -49.5q105 0 154 93l75 -35q-32 -64 -93.5 -100t-138.5 -36zM146 316h312q0 79 -40 123t-112 44q-70 0 -112.5 -44.5t-47.5 -122.5z" />
    <glyph glyph-name="Edotaccent" unicode="&#x116;" horiz-adv-x="645" 
d="M299 808v107h92v-107h-92zM106 0v714h482v-81h-390v-231h323v-81h-323v-240h391v-81h-483z" />
    <glyph glyph-name="edotaccent" unicode="&#x117;" horiz-adv-x="602" 
d="M263 636v107h92v-107h-92zM316 -15q-121 0 -193 77q-71 77 -71 207q0 132 70 211t190 79q110 0 173 -75q64 -73 64 -200q0 -16 -2 -38h-401q2 -84 48.5 -133.5t124.5 -49.5q105 0 154 93l75 -35q-32 -64 -93.5 -100t-138.5 -36zM146 316h312q0 79 -40 123t-112 44
q-70 0 -112.5 -44.5t-47.5 -122.5z" />
    <glyph glyph-name="Eogonek" unicode="&#x118;" horiz-adv-x="645" 
d="M583 -157l15 -43q-38 -15 -78 -15q-52 0 -82.5 26.5t-30.5 72.5q0 30 24 61t63 55h-388v714h482v-81h-390v-231h323v-81h-323v-240h391v-81q-54 -32 -79.5 -57.5t-25.5 -56.5q0 -24 15 -37.5t39 -13.5q15 0 45 8z" />
    <glyph glyph-name="eogonek" unicode="&#x119;" horiz-adv-x="602" 
d="M319 63q105 0 154 93l75 -35q-41 -79 -118 -113q-42 -34 -42 -72q0 -24 14.5 -37.5t38.5 -13.5q16 0 46 8l14 -43q-37 -15 -78 -15q-52 0 -82.5 26.5t-30.5 72.5q0 23 17 51h-11q-121 0 -193 77q-71 77 -71 207q0 132 70 211t190 79q110 0 173 -75q64 -73 64 -200
q0 -16 -2 -38h-401q2 -84 48.5 -133.5t124.5 -49.5zM306 483q-70 0 -112.5 -44.5t-47.5 -122.5h312q0 79 -40 123t-112 44z" />
    <glyph glyph-name="Ecaron" unicode="&#x11a;" horiz-adv-x="645" 
d="M307 780l-132 134h85l83 -84l84 84h85l-132 -134h-73zM106 0v714h482v-81h-390v-231h323v-81h-323v-240h391v-81h-483z" />
    <glyph glyph-name="ecaron" unicode="&#x11b;" horiz-adv-x="602" 
d="M271 608l-131 134h84l83 -83l84 83h85l-132 -134h-73zM316 -15q-121 0 -193 77q-71 77 -71 207q0 132 70 211t190 79q110 0 173 -75q64 -73 64 -200q0 -16 -2 -38h-401q2 -84 48.5 -133.5t124.5 -49.5q105 0 154 93l75 -35q-32 -64 -93.5 -100t-138.5 -36zM146 316h312
q0 79 -40 123t-112 44q-70 0 -112.5 -44.5t-47.5 -122.5z" />
    <glyph glyph-name="Gcircumflex" unicode="&#x11c;" horiz-adv-x="753" 
d="M213 779l137 144h78l135 -144h-85l-90 95l-90 -95h-85zM394 -14q-164 0 -249 103t-85 268q0 76 19.5 141.5t58 118t103.5 82.5t149 30q115 0 188 -53.5t100 -154.5l-91 -19q-45 143 -196 143q-113 0 -176 -77t-63 -214q0 -138 64 -212.5t180 -74.5q97 0 151 48
q55 48 55 116v75h-199v76h286v-136q0 -111 -77 -186q-77 -74 -218 -74z" />
    <glyph glyph-name="gcircumflex" unicode="&#x11d;" horiz-adv-x="646" 
d="M140 604l137 144h77l136 -144h-86l-89 94l-90 -94h-85zM314 -234q-93 0 -157 39t-90 114l82 27q36 -102 162 -102q76 0 117 41.5t41 123.5v93q-45 -106 -167 -106q-119 0 -183.5 74t-64.5 204q0 132 63.5 208.5t179.5 76.5q123 0 179 -111v95h81v-534q0 -119 -68 -181
t-175 -62zM311 71q159 0 159 206q0 103 -42.5 156.5t-116.5 53.5q-77 0 -120.5 -57t-43.5 -156q0 -98 43 -150.5t121 -52.5z" />
    <glyph glyph-name="Gbreve" unicode="&#x11e;" horiz-adv-x="753" 
d="M384 791q-71 0 -114.5 36.5t-53.5 91.5h65q6 -35 37 -55t66 -20t66.5 20t37.5 55h65q-10 -55 -54 -91.5t-115 -36.5zM394 -14q-164 0 -249 103t-85 268q0 76 19.5 141.5t58 118t103.5 82.5t149 30q115 0 188 -53.5t100 -154.5l-91 -19q-45 143 -196 143q-113 0 -176 -77
t-63 -214q0 -138 64 -212.5t180 -74.5q97 0 151 48q55 48 55 116v75h-199v76h286v-136q0 -111 -77 -186q-77 -74 -218 -74z" />
    <glyph glyph-name="gbreve" unicode="&#x11f;" horiz-adv-x="646" 
d="M142 744h66q6 -35 37 -55t66 -20t66.5 20t37.5 55h65q-10 -55 -54 -91.5t-115 -36.5t-115 36.5t-54 91.5zM314 -234q-93 0 -157 39t-90 114l82 27q36 -102 162 -102q76 0 117 41.5t41 123.5v93q-45 -106 -167 -106q-119 0 -183.5 74t-64.5 204q0 132 63.5 208.5
t179.5 76.5q123 0 179 -111v95h81v-534q0 -119 -68 -181t-175 -62zM311 71q159 0 159 206q0 103 -42.5 156.5t-116.5 53.5q-77 0 -120.5 -57t-43.5 -156q0 -98 43 -150.5t121 -52.5z" />
    <glyph glyph-name="Gdotaccent" unicode="&#x120;" horiz-adv-x="753" 
d="M344 812v107h92v-107h-92zM394 -14q-164 0 -249 103t-85 268q0 76 19.5 141.5t58 118t103.5 82.5t149 30q115 0 188 -53.5t100 -154.5l-91 -19q-45 143 -196 143q-113 0 -176 -77t-63 -214q0 -138 64 -212.5t180 -74.5q97 0 151 48q55 48 55 116v75h-199v76h286v-136
q0 -111 -77 -186q-77 -74 -218 -74z" />
    <glyph glyph-name="gdotaccent" unicode="&#x121;" horiz-adv-x="646" 
d="M271 637v107h91v-107h-91zM314 -234q-93 0 -157 39t-90 114l82 27q36 -102 162 -102q76 0 117 41.5t41 123.5v93q-45 -106 -167 -106q-119 0 -183.5 74t-64.5 204q0 132 63.5 208.5t179.5 76.5q123 0 179 -111v95h81v-534q0 -119 -68 -181t-175 -62zM311 71
q159 0 159 206q0 103 -42.5 156.5t-116.5 53.5q-77 0 -120.5 -57t-43.5 -156q0 -98 43 -150.5t121 -52.5z" />
    <glyph glyph-name="uni0122" unicode="&#x122;" horiz-adv-x="753" 
d="M394 -14q-164 0 -249 103t-85 268q0 76 19.5 141.5t58 118t103.5 82.5t149 30q115 0 188 -53.5t100 -154.5l-91 -19q-45 143 -196 143q-113 0 -176 -77t-63 -214q0 -138 64 -212.5t180 -74.5q97 0 151 48q55 48 55 116v75h-199v76h286v-136q0 -111 -77 -186
q-77 -74 -218 -74zM335 -249l9 190h84l-50 -190h-43z" />
    <glyph glyph-name="uni0123" unicode="&#x123;" horiz-adv-x="646" 
d="M357 787l-9 -190h-75l45 190h39zM314 -234q-93 0 -157 39t-90 114l82 27q36 -102 162 -102q76 0 117 41.5t41 123.5v93q-45 -106 -167 -106q-119 0 -183.5 74t-64.5 204q0 132 63.5 208.5t179.5 76.5q123 0 179 -111v95h81v-534q0 -119 -68 -181t-175 -62zM311 71
q159 0 159 206q0 103 -42.5 156.5t-116.5 53.5q-77 0 -120.5 -57t-43.5 -156q0 -98 43 -150.5t121 -52.5z" />
    <glyph glyph-name="Hcircumflex" unicode="&#x124;" horiz-adv-x="794" 
d="M221 776l137 144h78l136 -144h-86l-89 95l-90 -95h-86zM106 0v714h92v-314h398v314h92v-714h-92v318h-398v-318h-92z" />
    <glyph glyph-name="hcircumflex" unicode="&#x125;" horiz-adv-x="641" 
d="M-43 793l137 144h78l135 -144h-85l-90 95l-90 -95h-85zM90 0v760h87l1 -309q49 106 179 106q200 0 200 -232v-325h-89v323q0 81 -33 120t-102 39q-75 0 -114 -42.5t-39 -126.5v-313h-90z" />
    <glyph glyph-name="Hbar" unicode="&#x126;" horiz-adv-x="797" 
d="M689 580h51v-67h-51v-513h-91v318h-398v-318h-92v513h-52v67h52v134h92v-134h398v134h91v-134zM200 400h398v113h-398v-113z" />
    <glyph glyph-name="hbar" unicode="&#x127;" horiz-adv-x="641" 
d="M357 557q200 0 200 -232v-325h-89v323q0 81 -33 120t-102 39q-75 0 -114 -42.5t-39 -126.5v-313h-90v608h-127v59h127v93h87v-93h131v-59h-131l1 -157q49 106 179 106z" />
    <glyph glyph-name="Itilde" unicode="&#x128;" horiz-adv-x="305" 
d="M253 778q-35 0 -101 26q-65 27 -92 27q-45 0 -53 -41h-68q7 52 38.5 79.5t77.5 27.5q39 0 100 -27q63 -27 91 -27q46 0 55 42h68q-9 -53 -39.5 -80t-76.5 -27zM106 0v714h92v-714h-92z" />
    <glyph glyph-name="itilde" unicode="&#x129;" horiz-adv-x="292" 
d="M236 600q-35 0 -101 26q-65 27 -92 27q-44 0 -53 -41h-68q7 52 38 79t78 27q38 0 100 -27q64 -26 91 -26q44 0 55 41h68q-9 -52 -39.5 -79t-76.5 -27zM254 0h-59q-53 1 -79.5 28.5t-26.5 77.5v437h90v-423q0 -24 8 -32.5t32 -8.5h35v-79z" />
    <glyph glyph-name="Imacron" unicode="&#x12a;" horiz-adv-x="305" 
d="M-36 804v59h375v-59h-375zM106 0v714h92v-714h-92z" />
    <glyph glyph-name="imacron" unicode="&#x12b;" horiz-adv-x="292" 
d="M-53 625v59h375v-59h-375zM254 0h-59q-53 1 -79.5 28.5t-26.5 77.5v437h90v-423q0 -24 8 -32.5t32 -8.5h35v-79z" />
    <glyph glyph-name="Ibreve" unicode="&#x12c;" horiz-adv-x="305" 
d="M148 790q-71 0 -115 36.5t-54 91.5h65q6 -35 37.5 -55t66.5 -20t66 20t37 55h65q-10 -55 -53.5 -91.5t-114.5 -36.5zM106 0v714h92v-714h-92z" />
    <glyph glyph-name="ibreve" unicode="&#x12d;" horiz-adv-x="292" 
d="M131 612q-71 0 -115 36.5t-54 91.5h65q6 -35 37.5 -55t66.5 -20t66 20t37 55h65q-10 -55 -53.5 -91.5t-114.5 -36.5zM254 0h-59q-53 1 -79.5 28.5t-26.5 77.5v437h90v-423q0 -24 8 -32.5t32 -8.5h35v-79z" />
    <glyph glyph-name="Iogonek" unicode="&#x12e;" horiz-adv-x="305" 
d="M193 -157l14 -43q-37 -15 -77 -15q-52 0 -83 26.5t-31 72.5q0 30 25 61.5t65 55.5v713h92v-714q-104 -59 -104 -114q0 -24 14.5 -37.5t39.5 -13.5q15 0 45 8z" />
    <glyph glyph-name="iogonek" unicode="&#x12f;" horiz-adv-x="292" 
d="M90 740h92v-107h-92v107zM254 0h-13q-54 -31 -79 -57t-25 -57q0 -24 15 -37.5t39 -13.5q15 0 45 8l15 -43q-37 -15 -78 -15q-52 0 -83 26.5t-31 72.5q0 32 27.5 65t69.5 56q-67 19 -67 101v437h90v-423q0 -24 8 -32.5t32 -8.5h35v-79z" />
    <glyph glyph-name="Idot" unicode="&#x130;" horiz-adv-x="305" 
d="M107 811v107h92v-107h-92zM106 0v714h92v-714h-92z" />
    <glyph glyph-name="dotlessi" unicode="&#x131;" horiz-adv-x="292" 
d="M254 0h-59q-53 1 -79.5 28.5t-26.5 77.5v437h90v-423q0 -24 8 -32.5t32 -8.5h35v-79z" />
    <glyph glyph-name="Jcircumflex" unicode="&#x134;" horiz-adv-x="600" 
d="M279 776l137 144h77l136 -144h-86l-89 95l-90 -95h-85zM267 -13q-230 0 -231 247h90q0 -85 34 -125t107 -40t109 43q14 17 22 47q11 40 11 107v448h92v-466q0 -110 -48 -180q-52 -81 -186 -81z" />
    <glyph glyph-name="jcircumflex" unicode="&#x135;" horiz-adv-x="340" 
d="M232 604l-89 95l-90 -95h-85l137 145h77l136 -145h-86zM27 543h223v-580q0 -80 -34.5 -120.5t-109.5 -40.5h-93v80h82q66 0 66 77v502h-134v82z" />
    <glyph glyph-name="uni0136" unicode="&#x136;" horiz-adv-x="692" 
d="M653 714l-261 -294l292 -420h-114l-240 349l-132 -148v-201h-92v714h92v-390l339 390h116zM356 -249h-44l10 190h84z" />
    <glyph glyph-name="uni0137" unicode="&#x137;" horiz-adv-x="558" 
d="M528 544l-204 -233l228 -311h-108l-178 244l-86 -99v-145h-90v760h90v-493l237 277h111zM292 -249h-39l8 190h76z" />
    <glyph glyph-name="Lacute" unicode="&#x139;" horiz-adv-x="602" 
d="M111 777l91 137h92l-109 -137h-74zM106 0v714h92v-632h375v-82h-467z" />
    <glyph glyph-name="lacute" unicode="&#x13a;" horiz-adv-x="331" 
d="M94 798l91 137h93l-109 -137h-75zM311 0h-93q-64 0 -97 34t-33 98v628h90v-619q0 -33 12.5 -47.5t40.5 -14.5h80v-79z" />
    <glyph glyph-name="uni013B" unicode="&#x13b;" horiz-adv-x="602" 
d="M106 0v714h92v-632h375v-82h-467zM286 -277l10 211h84l-50 -211h-44z" />
    <glyph glyph-name="uni013C" unicode="&#x13c;" horiz-adv-x="331" 
d="M311 0h-93q-64 0 -97 34t-33 98v628h90v-619q0 -33 12.5 -47.5t40.5 -14.5h80v-79zM135 -249l9 190h76l-46 -190h-39z" />
    <glyph glyph-name="Lcaron" unicode="&#x13d;" horiz-adv-x="603" 
d="M106 0v714h92v-632h375v-82h-467zM311 566l25 148h78l-46 -148h-57z" />
    <glyph glyph-name="lcaron" unicode="&#x13e;" horiz-adv-x="332" 
d="M249 619l24 145h77l-46 -145h-55zM311 0h-93q-64 0 -97 34t-33 98v628h90v-619q0 -33 12.5 -47.5t40.5 -14.5h80v-79z" />
    <glyph glyph-name="Ldot" unicode="&#x13f;" horiz-adv-x="604" 
d="M106 0v714h92v-632h375v-82h-467zM433 326q-27 0 -45.5 18t-18.5 44q0 25 19 44.5t45 19.5t45 -18.5t19 -45.5q0 -26 -19 -44t-45 -18z" />
    <glyph glyph-name="ldot" unicode="&#x140;" horiz-adv-x="461" 
d="M311 0h-93q-64 0 -97 34t-33 98v628h90v-619q0 -33 12.5 -47.5t40.5 -14.5h80v-79zM372 287q-28 0 -46.5 18.5t-18.5 44.5q0 25 19 44t46 19q26 0 44.5 -18.5t18.5 -44.5q0 -27 -18.5 -45t-44.5 -18z" />
    <glyph glyph-name="Lslash" unicode="&#x141;" horiz-adv-x="631" 
d="M228 351v-269h374v-82h-466v285l-88 -64v83l88 63v347h92v-281l86 62v-82z" />
    <glyph glyph-name="lslash" unicode="&#x142;" horiz-adv-x="385" 
d="M270 79h80v-79h-93q-129 0 -129 132v175l-87 -63v83l87 62v371h89v-307l90 65v-82l-90 -65v-230q0 -62 53 -62z" />
    <glyph glyph-name="Nacute" unicode="&#x143;" horiz-adv-x="804" 
d="M360 777l91 137h93l-109 -137h-75zM106 0v714h111l328 -489l54 -86h10l-1 137v438h89v-714h-106l-317 469l-69 106h-9l1 -136v-439h-91z" />
    <glyph glyph-name="nacute" unicode="&#x144;" horiz-adv-x="641" 
d="M286 610l91 137h93l-109 -137h-75zM90 0v543h78v-109q45 123 188 123q201 0 201 -225v-332h-89v336q0 143 -136 143q-152 0 -152 -181v-298h-90z" />
    <glyph glyph-name="uni0145" unicode="&#x145;" horiz-adv-x="804" 
d="M106 0v714h111l328 -489l54 -86h10l-1 137v438h89v-714h-106l-317 469l-69 106h-9l1 -136v-439h-91zM350 -249l9 190h84l-50 -190h-43z" />
    <glyph glyph-name="uni0146" unicode="&#x146;" horiz-adv-x="641" 
d="M90 0v543h78v-109q45 123 188 123q201 0 201 -225v-332h-89v336q0 143 -136 143q-152 0 -152 -181v-298h-90zM272 -277l9 211h85l-51 -211h-43z" />
    <glyph glyph-name="Ncaron" unicode="&#x147;" horiz-adv-x="804" 
d="M365 782l-132 134h85l83 -84l84 84h85l-132 -134h-73zM106 0v714h111l328 -489l54 -86h10l-1 137v438h89v-714h-106l-317 469l-69 106h-9l1 -136v-439h-91z" />
    <glyph glyph-name="ncaron" unicode="&#x148;" horiz-adv-x="641" 
d="M290 615l-131 134h85l83 -83l84 83h85l-132 -134h-74zM90 0v543h78v-109q45 123 188 123q201 0 201 -225v-332h-89v336q0 143 -136 143q-152 0 -152 -181v-298h-90z" />
    <glyph glyph-name="napostrophe" unicode="&#x149;" horiz-adv-x="641" 
d="M90 0v543h78v-109q45 123 188 123q201 0 201 -225v-332h-89v336q0 143 -136 143q-152 0 -152 -181v-298h-90zM272 -277l9 211h85l-51 -211h-43z" />
    <glyph glyph-name="Eng" unicode="&#x14a;" horiz-adv-x="809" 
d="M448 -245v90h50q99 0 99 149l-395 571l1 -565h-97v714h115l385 -565l2 565h95v-713q0 -108 -49 -176q-48 -70 -149 -70h-57z" />
    <glyph glyph-name="eng" unicode="&#x14b;" horiz-adv-x="650" 
d="M357 -204v74h54q66 0 66 91l-1 352q0 85 -29 125t-101 40t-119 -46q-47 -47 -47 -121v-310h-90v542h85v-101q55 115 198 115q97 0 144.5 -54.5t47.5 -172.5l2 -349q0 -98 -32 -141.5t-112 -43.5h-66z" />
    <glyph glyph-name="Omacron" unicode="&#x14c;" horiz-adv-x="794" 
d="M208 802v59h376v-59h-376zM397 -14q-159 0 -249 107q-89 107 -89 265t91 264q92 107 247 107t247 -107t92 -264q0 -158 -90 -265q-89 -107 -249 -107zM397 68q112 0 178 79q67 79 67 211q0 131 -67 210q-67 81 -178 81q-109 0 -177 -81q-67 -79 -67 -210q0 -132 66 -211
q67 -79 178 -79z" />
    <glyph glyph-name="omacron" unicode="&#x14d;" horiz-adv-x="619" 
d="M122 630v59h375v-59h-375zM309 -15q-123 0 -191 83q-66 84 -66 204q0 119 66 203q68 84 191 84q64 0 114.5 -24t81 -64.5t46.5 -91.5t16 -107q0 -121 -67 -204q-66 -83 -191 -83zM309 63q75 0 120.5 57.5t45.5 151.5t-45 151.5t-120 57.5t-120.5 -58t-45.5 -152t45 -151
t120 -57z" />
    <glyph glyph-name="Obreve" unicode="&#x14e;" horiz-adv-x="794" 
d="M223 916h65q8 -35 38.5 -55t65.5 -20t65.5 20t38.5 55h65q-10 -55 -54 -91.5t-115 -36.5t-115 36.5t-54 91.5zM397 -14q-159 0 -249 107q-89 107 -89 265t91 264q92 107 247 107t247 -107t92 -264q0 -158 -90 -265q-89 -107 -249 -107zM397 68q112 0 178 79q67 79 67 211
q0 131 -67 210q-67 81 -178 81q-109 0 -177 -81q-67 -79 -67 -210q0 -132 66 -211q67 -79 178 -79z" />
    <glyph glyph-name="obreve" unicode="&#x14f;" horiz-adv-x="619" 
d="M306 616q-71 0 -115 36.5t-54 91.5h65q6 -35 37.5 -55t66.5 -20t66 20t37 55h65q-10 -55 -53.5 -91.5t-114.5 -36.5zM309 -15q-123 0 -191 83q-66 84 -66 204q0 119 66 203q68 84 191 84q64 0 114.5 -24t81 -64.5t46.5 -91.5t16 -107q0 -121 -67 -204q-66 -83 -191 -83z
M309 63q75 0 120.5 57.5t45.5 151.5t-45 151.5t-120 57.5t-120.5 -58t-45.5 -152t45 -151t120 -57z" />
    <glyph glyph-name="Ohungarumlaut" unicode="&#x150;" horiz-adv-x="794" 
d="M275 801l76 125h91l-97 -125h-70zM450 801l76 125h91l-98 -125h-69zM397 -14q-159 0 -249 107q-89 107 -89 265t91 264q92 107 247 107t247 -107t92 -264q0 -158 -90 -265q-89 -107 -249 -107zM397 68q112 0 178 79q67 79 67 211q0 131 -67 210q-67 81 -178 81
q-109 0 -177 -81q-67 -79 -67 -210q0 -132 66 -211q67 -79 178 -79z" />
    <glyph glyph-name="ohungarumlaut" unicode="&#x151;" horiz-adv-x="619" 
d="M188 628l76 125h92l-98 -125h-70zM364 628l75 125h91l-97 -125h-69zM309 -15q-123 0 -191 83q-66 84 -66 204q0 119 66 203q68 84 191 84q64 0 114.5 -24t81 -64.5t46.5 -91.5t16 -107q0 -121 -67 -204q-66 -83 -191 -83zM309 63q75 0 120.5 57.5t45.5 151.5t-45 151.5
t-120 57.5t-120.5 -58t-45.5 -152t45 -151t120 -57z" />
    <glyph glyph-name="OE" unicode="&#x152;" horiz-adv-x="1177" 
d="M724 315v-233h395v-82h-487v96q-83 -110 -237 -110q-161 0 -249 105q-87 105 -87 263q0 163 90 269q91 106 246 106t237 -112v91h486v-81h-394v-231h328v-81h-328zM632 355q0 136 -63.5 213.5t-175.5 77.5t-176 -77.5t-64 -213.5q0 -134 63.5 -209t176.5 -75t176 75
t63 209z" />
    <glyph glyph-name="oe" unicode="&#x153;" horiz-adv-x="1047" 
d="M921 156l75 -35q-70 -136 -239 -136q-153 0 -223 114q-69 -112 -218 -112q-130 0 -197 82t-67 202q0 122 67 204q68 83 197 83q150 0 219 -114q67 114 218 114q125 0 184 -77t57 -235h-412q2 -85 49 -134t130 -49q111 0 160 93zM748 483q-71 0 -115.5 -42.5t-50.5 -121.5
h324q-1 75 -43.5 119.5t-114.5 44.5zM316 479q-80 0 -125.5 -56t-45.5 -152q0 -94 45 -151q45 -56 126 -56t126 56q46 55 46 151t-46 152t-126 56z" />
    <glyph glyph-name="Racute" unicode="&#x154;" horiz-adv-x="673" 
d="M306 777l91 137h93l-109 -137h-75zM106 0v714h262q113 0 177 -54.5t64 -151.5q0 -78 -43 -129.5t-122 -67.5l174 -311h-106l-158 298h-156v-298h-92zM198 381h167q71 0 110.5 32t39.5 89q0 131 -152 131h-165v-252z" />
    <glyph glyph-name="racute" unicode="&#x155;" horiz-adv-x="417" 
d="M195 595l91 136h92l-109 -136h-74zM90 0v543h80v-88q25 88 118 88h109v-84h-125q-92 0 -92 -115v-344h-90z" />
    <glyph glyph-name="uni0156" unicode="&#x156;" horiz-adv-x="673" 
d="M106 0v714h262q113 0 177 -54.5t64 -151.5q0 -78 -43 -129.5t-122 -67.5l174 -311h-106l-158 298h-156v-298h-92zM198 381h167q71 0 110.5 32t39.5 89q0 131 -152 131h-165v-252zM296 -249l9 190h84l-50 -190h-43z" />
    <glyph glyph-name="uni0157" unicode="&#x157;" horiz-adv-x="417" 
d="M90 0v543h80v-88q25 88 118 88h109v-84h-125q-92 0 -92 -115v-344h-90zM88 -249l9 190h75l-45 -190h-39z" />
    <glyph glyph-name="Rcaron" unicode="&#x158;" horiz-adv-x="673" 
d="M311 782l-132 134h85l83 -84l84 84h85l-132 -134h-73zM106 0v714h262q113 0 177 -54.5t64 -151.5q0 -78 -43 -129.5t-122 -67.5l174 -311h-106l-158 298h-156v-298h-92zM198 381h167q71 0 110.5 32t39.5 89q0 131 -152 131h-165v-252z" />
    <glyph glyph-name="rcaron" unicode="&#x159;" horiz-adv-x="417" 
d="M199 600l-131 134h85l83 -84l84 84h85l-133 -134h-73zM90 0v543h80v-88q25 88 118 88h109v-84h-125q-92 0 -92 -115v-344h-90z" />
    <glyph glyph-name="Sacute" unicode="&#x15a;" horiz-adv-x="647" 
d="M278 780l90 137h93l-109 -137h-74zM331 -14q-116 0 -188 51t-91 144l92 20q31 -133 189 -133q74 0 118 32t44 85q0 59 -43 86q-41 26 -148 52q-107 27 -166 66q-68 48 -68 141t67 145q68 53 178 53t178 -48.5t86 -137.5l-92 -12q-27 117 -173 117q-70 0 -111.5 -31
t-41.5 -84q0 -52 38 -76q39 -23 140 -50q121 -33 164 -58q87 -50 87 -153q0 -99 -69 -154t-190 -55z" />
    <glyph glyph-name="sacute" unicode="&#x15b;" horiz-adv-x="531" 
d="M224 602l91 137h93l-109 -137h-75zM44 134l83 16q20 -89 149 -89q57 0 90.5 19.5t33.5 57.5q0 36 -30 58q-10 10 -36 18q-33 11 -94 23q-90 19 -135 54t-45 112q0 71 55 113.5t146 42.5q87 0 142.5 -40t68.5 -110l-76 -13q-23 89 -130 89q-57 0 -90 -22.5t-33 -61.5
q0 -41 31 -57q32 -17 112 -33q86 -18 137 -50q60 -37 60 -122q0 -74 -57.5 -114t-155.5 -40q-193 0 -226 149z" />
    <glyph glyph-name="Scircumflex" unicode="&#x15c;" horiz-adv-x="647" 
d="M144 779l137 144h78l135 -144h-86l-89 95l-90 -95h-85zM331 -14q-116 0 -188 51t-91 144l92 20q31 -133 189 -133q74 0 118 32t44 85q0 59 -43 86q-41 26 -148 52q-107 27 -166 66q-68 48 -68 141t67 145q68 53 178 53t178 -48.5t86 -137.5l-92 -12q-27 117 -173 117
q-70 0 -111.5 -31t-41.5 -84q0 -52 38 -76q39 -23 140 -50q121 -33 164 -58q87 -50 87 -153q0 -99 -69 -154t-190 -55z" />
    <glyph glyph-name="scircumflex" unicode="&#x15d;" horiz-adv-x="531" 
d="M91 601l137 145h77l136 -145h-86l-89 95l-90 -95h-85zM44 134l83 16q20 -89 149 -89q57 0 90.5 19.5t33.5 57.5q0 36 -30 58q-10 10 -36 18q-33 11 -94 23q-90 19 -135 54t-45 112q0 71 55 113.5t146 42.5q87 0 142.5 -40t68.5 -110l-76 -13q-23 89 -130 89
q-57 0 -90 -22.5t-33 -61.5q0 -41 31 -57q32 -17 112 -33q86 -18 137 -50q60 -37 60 -122q0 -74 -57.5 -114t-155.5 -40q-193 0 -226 149z" />
    <glyph glyph-name="Scedilla" unicode="&#x15e;" horiz-adv-x="647" 
d="M590 195q0 -93 -60 -147t-167 -61l-20 -47q99 4 99 -82q0 -85 -116 -85h-77v49h61q62 0 62 40q0 43 -81 37l-16 24l26 64q-103 7 -167 57.5t-82 136.5l92 20q31 -133 189 -133q74 0 118 32t44 85q0 59 -43 86q-41 26 -148 52q-107 27 -166 66q-68 48 -68 141t67 145
q68 53 178 53t178 -48.5t86 -137.5l-92 -12q-27 117 -173 117q-70 0 -111.5 -31t-41.5 -84q0 -52 38 -76q39 -23 140 -50q121 -33 164 -58q87 -50 87 -153z" />
    <glyph glyph-name="scedilla" unicode="&#x15f;" horiz-adv-x="531" 
d="M483 139q0 -68 -49.5 -108t-135.5 -45l-19 -46q98 5 98 -82q0 -85 -116 -85h-77v49h61q63 0 63 40q0 43 -81 37l-16 24l26 63q-163 13 -193 148l83 16q20 -89 149 -89q57 0 90.5 19.5t33.5 57.5q0 36 -30 58q-10 10 -36 18q-33 11 -94 23q-90 19 -135 54t-45 112
q0 71 55 113.5t146 42.5q87 0 142.5 -40t68.5 -110l-76 -13q-23 89 -130 89q-57 0 -90 -22.5t-33 -61.5q0 -41 31 -57q32 -17 112 -33q86 -18 137 -50q60 -37 60 -122z" />
    <glyph glyph-name="Scaron" unicode="&#x160;" horiz-adv-x="647" 
d="M282 785l-131 134h84l83 -84l84 84h85l-132 -134h-73zM331 -14q-116 0 -188 51t-91 144l92 20q31 -133 189 -133q74 0 118 32t44 85q0 59 -43 86q-41 26 -148 52q-107 27 -166 66q-68 48 -68 141t67 145q68 53 178 53t178 -48.5t86 -137.5l-92 -12q-27 117 -173 117
q-70 0 -111.5 -31t-41.5 -84q0 -52 38 -76q39 -23 140 -50q121 -33 164 -58q87 -50 87 -153q0 -99 -69 -154t-190 -55z" />
    <glyph glyph-name="scaron" unicode="&#x161;" horiz-adv-x="531" 
d="M229 607l-131 134h84l83 -83l84 83h85l-132 -134h-73zM44 134l83 16q20 -89 149 -89q57 0 90.5 19.5t33.5 57.5q0 36 -30 58q-10 10 -36 18q-33 11 -94 23q-90 19 -135 54t-45 112q0 71 55 113.5t146 42.5q87 0 142.5 -40t68.5 -110l-76 -13q-23 89 -130 89
q-57 0 -90 -22.5t-33 -61.5q0 -41 31 -57q32 -17 112 -33q86 -18 137 -50q60 -37 60 -122q0 -74 -57.5 -114t-155.5 -40q-193 0 -226 149z" />
    <glyph glyph-name="uni0162" unicode="&#x162;" horiz-adv-x="616" 
d="M353 632v-632h-8l-26 -60q99 4 99 -82q0 -85 -116 -85h-77v49h61q63 0 63 40q0 43 -81 37l-16 24l32 77h-23v632h-233v82h560v-82h-235z" />
    <glyph glyph-name="uni0163" unicode="&#x163;" horiz-adv-x="474" 
d="M452 80v-80h-150l-23 -54q99 4 99 -82q0 -84 -116 -84h-77v48h61q63 0 63 40q0 43 -82 37l-16 24l32 76q-106 22 -106 155l1 303h-117v80h119l24 143h63v-143h213v-80h-213v-297q0 -86 77 -86h148z" />
    <glyph glyph-name="Tcaron" unicode="&#x164;" horiz-adv-x="616" 
d="M271 782l-132 134h85l83 -84l84 84h85l-132 -134h-73zM261 0v632h-233v82h560v-82h-235v-632h-92z" />
    <glyph glyph-name="tcaron" unicode="&#x165;" horiz-adv-x="474" 
d="M362 659l25 151h82l-49 -151h-58zM452 0h-159q-156 0 -156 160l1 303h-117v80h119l24 143h63v-143h213v-80h-213v-297q0 -86 77 -86h148v-80z" />
    <glyph glyph-name="Tbar" unicode="&#x166;" horiz-adv-x="627" 
d="M593 714v-82h-234v-252h127v-60h-127v-320h-92v320h-126v60h126v252h-233v82h559z" />
    <glyph glyph-name="tbar" unicode="&#x167;" horiz-adv-x="478" 
d="M307 80h148v-80h-159q-155 0 -155 160v136h-95v59h95v108h-117v80h119l24 143h63v-143h213v-80h-213v-108h168v-59h-168v-130q0 -86 77 -86z" />
    <glyph glyph-name="Utilde" unicode="&#x168;" horiz-adv-x="745" 
d="M474 776q-35 0 -101 26q-65 27 -92 27q-45 0 -53 -41h-68q7 52 38.5 79.5t77.5 27.5q38 0 100 -27q64 -26 91 -26q46 0 55 41h68q-9 -53 -39.5 -80t-76.5 -27zM373 -15q-135 0 -205 73t-70 211v445h91v-439q0 -100 48 -153t137 -53q93 0 137 50.5t44 155.5v439h92v-445
q0 -140 -70 -212t-204 -72z" />
    <glyph glyph-name="utilde" unicode="&#x169;" horiz-adv-x="620" 
d="M408 590q-35 0 -101 26q-65 27 -93 27q-44 0 -52 -41h-68q7 52 38.5 79.5t77.5 27.5q38 0 100 -27q63 -27 90 -27q45 0 56 41h67q-8 -52 -38.5 -79t-76.5 -27zM278 -15q-195 0 -195 231v327h89v-312q0 -86 30 -125t101 -39q68 0 102.5 42.5t34.5 121.5v312h90v-543h-81
v90q-45 -105 -171 -105z" />
    <glyph glyph-name="Umacron" unicode="&#x16a;" horiz-adv-x="745" 
d="M185 802v59h375v-59h-375zM373 -15q-135 0 -205 73t-70 211v445h91v-439q0 -100 48 -153t137 -53q93 0 137 50.5t44 155.5v439h92v-445q0 -140 -70 -212t-204 -72z" />
    <glyph glyph-name="umacron" unicode="&#x16b;" horiz-adv-x="620" 
d="M119 616v59h375v-59h-375zM278 -15q-195 0 -195 231v327h89v-312q0 -86 30 -125t101 -39q68 0 102.5 42.5t34.5 121.5v312h90v-543h-81v90q-45 -105 -171 -105z" />
    <glyph glyph-name="Ubreve" unicode="&#x16c;" horiz-adv-x="745" 
d="M369 788q-71 0 -115 36.5t-54 91.5h65q6 -35 37.5 -55t66.5 -20t66 20t37 55h66q-10 -55 -54 -91.5t-115 -36.5zM373 -15q-135 0 -205 73t-70 211v445h91v-439q0 -100 48 -153t137 -53q93 0 137 50.5t44 155.5v439h92v-445q0 -140 -70 -212t-204 -72z" />
    <glyph glyph-name="ubreve" unicode="&#x16d;" horiz-adv-x="620" 
d="M302 602q-71 0 -114.5 36.5t-53.5 91.5h65q6 -35 37 -55t66 -20t66.5 20t37.5 55h65q-10 -55 -54 -91.5t-115 -36.5zM278 -15q-195 0 -195 231v327h89v-312q0 -86 30 -125t101 -39q68 0 102.5 42.5t34.5 121.5v312h90v-543h-81v90q-45 -105 -171 -105z" />
    <glyph glyph-name="Uring" unicode="&#x16e;" horiz-adv-x="745" 
d="M373 774q-55 0 -89.5 32.5t-34.5 82.5q0 49 35 82t89 33t89 -33t35 -82q0 -51 -34 -83t-90 -32zM444 889q0 28 -19.5 47t-51.5 19t-52 -19t-20 -47q0 -29 20 -47.5t52 -18.5t51.5 18.5t19.5 47.5zM373 -15q-135 0 -205 73t-70 211v445h91v-439q0 -100 48 -153t137 -53
q93 0 137 50.5t44 155.5v439h92v-445q0 -140 -70 -212t-204 -72z" />
    <glyph glyph-name="uring" unicode="&#x16f;" horiz-adv-x="620" 
d="M183 702q0 50 34.5 83t89.5 33q54 0 88.5 -32.5t34.5 -83.5q0 -49 -34.5 -81.5t-88.5 -32.5t-89 32.5t-35 81.5zM307 636q31 0 51 19t20 47t-19.5 47.5t-51.5 19.5t-52 -19.5t-20 -47.5t20 -47t52 -19zM278 -15q-195 0 -195 231v327h89v-312q0 -86 30 -125t101 -39
q68 0 102.5 42.5t34.5 121.5v312h90v-543h-81v90q-45 -105 -171 -105z" />
    <glyph glyph-name="Uhungarumlaut" unicode="&#x170;" horiz-adv-x="745" 
d="M252 801l75 125h92l-98 -125h-69zM427 801l75 125h92l-98 -125h-69zM373 -15q-135 0 -205 73t-70 211v445h91v-439q0 -100 48 -153t137 -53q93 0 137 50.5t44 155.5v439h92v-445q0 -140 -70 -212t-204 -72z" />
    <glyph glyph-name="uhungarumlaut" unicode="&#x171;" horiz-adv-x="620" 
d="M185 614l76 125h92l-98 -125h-70zM360 614l76 125h91l-97 -125h-70zM278 -15q-195 0 -195 231v327h89v-312q0 -86 30 -125t101 -39q68 0 102.5 42.5t34.5 121.5v312h90v-543h-81v90q-45 -105 -171 -105z" />
    <glyph glyph-name="Uogonek" unicode="&#x172;" horiz-adv-x="745" 
d="M505 9q-40 -34 -40 -71q0 -24 15 -37.5t39 -13.5q15 0 45 8l15 -43q-37 -14 -78 -14q-52 0 -82.5 26t-30.5 73q0 24 16 49q-7 -1 -31 -1q-135 0 -205 73t-70 211v445h91v-439q0 -100 48 -153t137 -53q93 0 137 50.5t44 155.5v439h92v-445q0 -200 -142 -260z" />
    <glyph glyph-name="uogonek" unicode="&#x173;" horiz-adv-x="620" 
d="M525 -157l14 -43q-37 -15 -78 -15q-52 0 -82.5 26.5t-30.5 72.5q0 32 28.5 66t72.5 58v82q-45 -105 -171 -105q-195 0 -195 231v327h89v-312q0 -86 30 -125t101 -39q68 0 102.5 42.5t34.5 121.5v312h90v-543q-54 -32 -79.5 -57.5t-25.5 -56.5q0 -24 15 -37.5t39 -13.5
q16 0 46 8z" />
    <glyph glyph-name="Wcircumflex" unicode="&#x174;" horiz-adv-x="950" 
d="M298 776l137 144h77l136 -144h-86l-89 95l-90 -95h-85zM39 714h92l139 -589l165 589h78l169 -589l136 589h92l-172 -714h-99l-166 582l-162 -582h-97z" />
    <glyph glyph-name="wcircumflex" unicode="&#x175;" horiz-adv-x="817" 
d="M233 592l137 144h77l136 -144h-86l-89 95l-90 -95h-85zM171 0l-136 543h97l101 -449l130 449h88l132 -449l101 449h97l-136 -543h-108l-129 432l-128 -432h-109z" />
    <glyph glyph-name="Ycircumflex" unicode="&#x176;" horiz-adv-x="667" 
d="M158 768l137 145h77l136 -145h-86l-89 95l-90 -95h-85zM288 0v253l-257 461h107l195 -371l196 371h106l-255 -461v-253h-92z" />
    <glyph glyph-name="ycircumflex" unicode="&#x177;" horiz-adv-x="565" 
d="M114 591l136 144h78l136 -144h-86l-89 95l-90 -95h-85zM161 -196h-117v80h98q24 0 40.5 15t32.5 51l25 58l-212 535h98l159 -436l161 436h96l-249 -634q-23 -57 -53.5 -81t-78.5 -24z" />
    <glyph glyph-name="Ydieresis" unicode="&#x178;" horiz-adv-x="667" 
d="M182 793v94h87v-94h-87zM398 793v94h86v-94h-86zM288 0v253l-257 461h107l195 -371l196 371h106l-255 -461v-253h-92z" />
    <glyph glyph-name="Zacute" unicode="&#x179;" horiz-adv-x="652" 
d="M281 777l90 137h93l-109 -137h-74zM41 0v71l438 561h-416v82h539v-72l-435 -560h437v-82h-563z" />
    <glyph glyph-name="zacute" unicode="&#x17a;" horiz-adv-x="530" 
d="M224 593l91 137h92l-109 -137h-74zM38 0v69l324 399h-301v75h414v-70l-318 -398h337v-75h-456z" />
    <glyph glyph-name="Zdotaccent" unicode="&#x17b;" horiz-adv-x="652" 
d="M278 810v107h91v-107h-91zM41 0v71l438 561h-416v82h539v-72l-435 -560h437v-82h-563z" />
    <glyph glyph-name="zdotaccent" unicode="&#x17c;" horiz-adv-x="530" 
d="M221 625v107h92v-107h-92zM38 0v69l324 399h-301v75h414v-70l-318 -398h337v-75h-456z" />
    <glyph glyph-name="Zcaron" unicode="&#x17d;" horiz-adv-x="652" 
d="M285 782l-131 134h84l83 -84l84 84h85l-132 -134h-73zM41 0v71l438 561h-416v82h539v-72l-435 -560h437v-82h-563z" />
    <glyph glyph-name="zcaron" unicode="&#x17e;" horiz-adv-x="530" 
d="M228 598l-131 134h85l83 -84l84 84h85l-132 -134h-74zM38 0v69l324 399h-301v75h414v-70l-318 -398h337v-75h-456z" />
    <glyph glyph-name="Ohorn" unicode="&#x1a0;" horiz-adv-x="795" 
d="M610 655q60 -50 93 -128t33 -169q0 -158 -90 -265q-89 -107 -249 -107q-159 0 -249 107q-89 107 -89 265t91 264q92 107 247 107q73 0 133 -25h31q58 0 58 39q0 23 -16 45l58 19q22 -40 22 -66q0 -71 -73 -86zM397 68q112 0 178 79q67 79 67 211q0 131 -67 210
q-67 81 -178 81q-109 0 -177 -81q-67 -79 -67 -210q0 -132 66 -211q67 -79 178 -79z" />
    <glyph glyph-name="ohorn" unicode="&#x1a1;" horiz-adv-x="631" 
d="M497 479q70 -79 70 -207q0 -121 -67 -204q-66 -83 -191 -83q-123 0 -191 83q-66 84 -66 204q0 119 66 203q68 84 191 84q75 0 128 -31h6q58 0 58 38q0 23 -16 45l58 20q22 -41 22 -67q0 -68 -68 -85zM309 63q75 0 120.5 57.5t45.5 151.5t-45 151.5t-120 57.5t-120.5 -58
t-45.5 -152t45 -151t120 -57z" />
    <glyph glyph-name="Uhorn" unicode="&#x1af;" horiz-adv-x="766" 
d="M700 798l58 19q22 -40 22 -66q0 -43 -28 -66.5t-82 -23.5h-23v-392q0 -140 -70 -212t-204 -72q-135 0 -205 73t-70 211v445h91v-439q0 -100 48 -153t137 -53q93 0 137 50.5t44 155.5v439h103q58 0 58 38q0 24 -16 46z" />
    <glyph glyph-name="uhorn" unicode="&#x1b0;" horiz-adv-x="647" 
d="M583 627l58 19q22 -40 22 -67q0 -89 -110 -89h-23v-490h-81v90q-45 -105 -171 -105q-195 0 -195 231v327h89v-312q0 -86 30 -125t101 -39q68 0 102.5 42.5t34.5 121.5v312h101q58 0 58 38q0 21 -16 46z" />
    <glyph glyph-name="AEacute" unicode="&#x1fc;" horiz-adv-x="1017" 
d="M603 777l90 137h93l-109 -137h-74zM6 0l328 708h625v-81h-394v-231h327v-81h-327v-233h395v-82h-487v172h-291l-84 -172h-92zM212 251h261v376h-91z" />
    <glyph glyph-name="aeacute" unicode="&#x1fd;" horiz-adv-x="958" 
d="M520 732h93l-109 -137h-75zM832 158l76 -35q-34 -66 -95 -102.5t-139 -36.5q-152 0 -220 114q-28 -49 -80.5 -79.5t-125.5 -30.5q-99 0 -149.5 42.5t-50.5 116.5q0 78 50.5 121.5t138.5 43.5h173v25q0 132 -134 132q-107 0 -148 -80l-67 46q67 118 216 118q131 0 189 -90
q71 95 201 95q111 0 174 -73.5t63 -200.5l-2 -38h-399q2 -85 48.5 -135t124.5 -50q107 0 156 97zM663 482q-69 0 -112.5 -44.5t-47.5 -121.5h310q-1 79 -40.5 122.5t-109.5 43.5zM410 177v68h-149q-57 0 -89.5 -26t-32.5 -72q0 -83 115 -83q56 0 91.5 27t64.5 86z" />
    <glyph glyph-name="Oslashacute" unicode="&#x1fe;" horiz-adv-x="798" 
d="M446 914h93l-109 -137h-74zM717 687l-61 -78q81 -101 81 -251q0 -158 -90 -265q-89 -107 -248 -107q-108 0 -188 53l-48 -61l-65 47l52 67q-90 105 -90 266q0 159 91 265t248 106q117 0 199 -63l54 69zM154 358q0 -116 53 -193l339 434q-62 50 -147 50q-111 0 -178 -81
q-67 -79 -67 -210zM399 68q112 0 178 79t66 211q0 102 -44 178l-335 -429q58 -39 135 -39z" />
    <glyph glyph-name="oslashacute" unicode="&#x1ff;" horiz-adv-x="621" 
d="M358 736h93l-109 -137h-75zM547 526l-41 -56q62 -79 62 -198q0 -121 -67 -203q-66 -83 -191 -83q-79 0 -138 37l-32 -43l-52 38l35 46q-71 80 -71 208q0 120 66 203q68 84 192 84q87 0 150 -45l38 50zM144 272q0 -80 33 -135l232 309q-41 35 -99 35q-75 0 -120.5 -57.5
t-45.5 -151.5zM310 63q76 0 120.5 57t44.5 152q0 72 -26 122l-227 -305q38 -26 88 -26z" />
    <glyph glyph-name="uni0218" unicode="&#x218;" horiz-adv-x="647" 
d="M331 -14q-116 0 -188 51t-91 144l92 20q31 -133 189 -133q74 0 118 32t44 85q0 59 -43 86q-41 26 -148 52q-107 27 -166 66q-68 48 -68 141t67 145q68 53 178 53t178 -48.5t86 -137.5l-92 -12q-27 117 -173 117q-70 0 -111.5 -31t-41.5 -84q0 -52 38 -76q39 -23 140 -50
q121 -33 164 -58q87 -50 87 -153q0 -99 -69 -154t-190 -55zM274 -249l10 190h84l-50 -190h-44z" />
    <glyph glyph-name="uni0219" unicode="&#x219;" horiz-adv-x="531" 
d="M44 134l83 16q20 -89 149 -89q57 0 90.5 19.5t33.5 57.5q0 36 -30 58q-10 10 -36 18q-33 11 -94 23q-90 19 -135 54t-45 112q0 71 55 113.5t146 42.5q87 0 142.5 -40t68.5 -110l-76 -13q-23 89 -130 89q-57 0 -90 -22.5t-33 -61.5q0 -41 31 -57q32 -17 112 -33
q86 -18 137 -50q60 -37 60 -122q0 -74 -57.5 -114t-155.5 -40q-193 0 -226 149zM215 -249l9 190h75l-45 -190h-39z" />
    <glyph glyph-name="uni021A" unicode="&#x21a;" horiz-adv-x="616" 
d="M261 0v632h-233v82h560v-82h-235v-632h-92zM251 -249l9 190h84l-50 -190h-43z" />
    <glyph glyph-name="uni021B" unicode="&#x21b;" horiz-adv-x="474" 
d="M452 0h-159q-156 0 -156 160l1 303h-117v80h119l24 143h63v-143h213v-80h-213v-297q0 -86 77 -86h148v-80zM216 -243l8 190h76l-45 -190h-39z" />
    <glyph glyph-name="uni0237" unicode="&#x237;" horiz-adv-x="340" 
d="M27 543h223v-580q0 -80 -34.5 -120.5t-109.5 -40.5h-93v80h82q66 0 66 77v502h-134v82z" />
    <glyph glyph-name="circumflex" unicode="&#x2c6;" horiz-adv-x="600" 
d="M125 608l136 144h78l136 -144h-86l-89 95l-90 -95h-85z" />
    <glyph glyph-name="caron" unicode="&#x2c7;" horiz-adv-x="600" 
d="M263 593l-132 134h85l83 -84l84 84h85l-132 -134h-73z" />
    <glyph glyph-name="breve" unicode="&#x2d8;" horiz-adv-x="600" 
d="M131 727h65q8 -35 38.5 -55t65.5 -20t65.5 20t38.5 55h65q-10 -55 -54 -91.5t-115 -36.5t-115 36.5t-54 91.5z" />
    <glyph glyph-name="dotaccent" unicode="&#x2d9;" horiz-adv-x="600" 
d="M255 616v107h92v-107h-92z" />
    <glyph glyph-name="ring" unicode="&#x2da;" horiz-adv-x="600" 
d="M300 574q-55 0 -89.5 32.5t-34.5 82.5q0 49 35 82t89 33t89 -33t35 -82q0 -51 -34 -83t-90 -32zM371 689q0 28 -19.5 47t-51.5 19t-52 -19t-20 -47q0 -29 20 -47.5t52 -18.5t51.5 18.5t19.5 47.5z" />
    <glyph glyph-name="ogonek" unicode="&#x2db;" horiz-adv-x="600" 
d="M321 -213q-52 0 -82.5 26.5t-30.5 72.5q0 36 34 73q34 35 81 58l67 -15q-105 -60 -105 -114q0 -24 15 -37.5t39 -13.5q15 0 45 8l15 -43q-35 -15 -78 -15z" />
    <glyph glyph-name="tilde" unicode="&#x2dc;" horiz-adv-x="600" 
d="M399 608q-35 0 -101 26q-64 27 -92 27q-45 0 -53 -41h-68q7 52 38.5 79.5t77.5 27.5q39 0 100 -27q63 -27 91 -27q46 0 55 42h68q-9 -53 -39.5 -80t-76.5 -27z" />
    <glyph glyph-name="hungarumlaut" unicode="&#x2dd;" horiz-adv-x="600" 
d="M138 613l75 125h92l-98 -125h-69zM313 613l75 125h91l-97 -125h-69z" />
    <glyph glyph-name="gravecomb" unicode="&#x300;" 
d="M-355 600l-106 137h93l87 -137h-74z" />
    <glyph glyph-name="acutecomb" unicode="&#x301;" 
d="M-334 600l90 137h93l-109 -137h-74z" />
    <glyph glyph-name="uni0302" unicode="&#x302;" 
d="M-475 608l136 144h78l136 -144h-86l-89 95l-90 -95h-85z" />
    <glyph glyph-name="tildecomb" unicode="&#x303;" 
d="M-201 608q-35 0 -101 26q-64 27 -92 27q-45 0 -53 -41h-68q7 52 38.5 79.5t77.5 27.5q38 0 101 -27q62 -27 90 -27q46 0 55 42h68q-9 -53 -39.5 -80t-76.5 -27z" />
    <glyph glyph-name="uni0304" unicode="&#x304;" 
d="M-488 628v59h375v-59h-375z" />
    <glyph glyph-name="uni0306" unicode="&#x306;" 
d="M-469 727h65q8 -35 38.5 -55t65.5 -20t65.5 20t38.5 55h65q-10 -55 -54 -91.5t-115 -36.5t-115 36.5t-54 91.5z" />
    <glyph glyph-name="uni0307" unicode="&#x307;" 
d="M-345 616v107h92v-107h-92z" />
    <glyph glyph-name="uni0308" unicode="&#x308;" 
d="M-451 625v95h86v-95h-86zM-235 625v95h86v-95h-86z" />
    <glyph glyph-name="hookabovecomb" unicode="&#x309;" 
d="M-152 793q49 0 81 -22.5t32 -63.5q0 -38 -26 -58.5t-71 -18.5v-54h-60l-1 73v22q37 -5 63.5 4.5t26.5 30.5q0 39 -62 39q-26 0 -58 -17l-19 42q43 23 94 23z" />
    <glyph glyph-name="uni030A" unicode="&#x30a;" 
d="M-300 574q-55 0 -89.5 32.5t-34.5 82.5q0 49 35 82t89 33t89 -33t35 -82q0 -51 -34 -83t-90 -32zM-229 689q0 28 -19.5 47t-51.5 19t-52 -19t-20 -47q0 -29 20 -47.5t52 -18.5t51.5 18.5t19.5 47.5z" />
    <glyph glyph-name="uni030B" unicode="&#x30b;" 
d="M-462 613l75 125h92l-98 -125h-69zM-287 613l75 125h91l-97 -125h-69z" />
    <glyph glyph-name="uni030C" unicode="&#x30c;" 
d="M-337 593l-132 134h85l83 -84l84 84h85l-132 -134h-73z" />
    <glyph glyph-name="uni0312" unicode="&#x312;" 
d="M-256 829l-9 -212h-85l51 212h43z" />
    <glyph glyph-name="uni031B" unicode="&#x31b;" 
d="M-218 539v52h39q58 0 58 39q0 23 -16 45l58 19q22 -40 22 -66q0 -89 -110 -89h-51z" />
    <glyph glyph-name="dotbelowcomb" unicode="&#x323;" 
d="M-114 -152v107h91v-107h-91z" />
    <glyph glyph-name="uni0326" unicode="&#x326;" 
d="M-197 -277l10 211h84l-50 -211h-44z" />
    <glyph glyph-name="uni0327" unicode="&#x327;" 
d="M-306 -227h-77v49h61q63 0 63 40q0 43 -81 37l-16 24l32 78h61l-25 -61q98 5 98 -82q0 -85 -116 -85z" />
    <glyph glyph-name="uni0328" unicode="&#x328;" 
d="M-279 -213q-52 0 -82.5 26.5t-30.5 72.5q0 35 35 73q34 36 80 58l67 -15q-105 -60 -105 -114q0 -24 15 -37.5t39 -13.5q15 0 45 8l15 -43q-35 -15 -78 -15z" />
    <glyph glyph-name="uni0335" unicode="&#x335;" 
d="M-478 204v60h345v-60h-345z" />
    <glyph glyph-name="uni0337" unicode="&#x337;" 
d="M-266 252v83l266 191v-82z" />
    <glyph glyph-name="uni0338" unicode="&#x338;" 
d="M-450 241v82l275 183v-81z" />
    <glyph glyph-name="uni0394" unicode="&#x394;" horiz-adv-x="751" 
d="M-6 0l381 607l382 -607h-763zM120 68h512l-256 416z" />
    <glyph glyph-name="uni03A9" unicode="&#x3a9;" horiz-adv-x="776" 
d="M76 0v76h156q-65 23 -110 86q-46 64 -46 151q0 119 90 201q89 82 224 82q133 0 221 -82q89 -81 89 -204q0 -86 -45 -149q-43 -62 -106 -85h151v-76h-268v73q69 19 121 82q53 65 53 147q0 96 -60 155q-60 60 -157 60q-98 0 -158 -60t-60 -155q0 -82 54 -147
q53 -64 122 -82v-73h-271z" />
    <glyph glyph-name="uni03BC" unicode="&#x3bc;" horiz-adv-x="627" 
d="M447 231v312h90v-543h-81v90q-45 -105 -171 -105q-65 0 -107 24v-207h-88v741h89v-312q0 -86 30 -125t101 -39q68 0 102.5 42.5t34.5 121.5z" />
    <glyph glyph-name="pi" unicode="&#x3c0;" horiz-adv-x="771" 
d="M606 -17q-65 0 -102.5 36.5t-37.5 101.5v343h-212v-464h-90v464h-143v79h692v-79h-155l-2 -334q0 -72 64 -72q36 0 91 33l28 -69q-67 -39 -133 -39z" />
    <glyph glyph-name="uni0400" unicode="&#x400;" horiz-adv-x="645" 
d="M320 774l-106 136h93l87 -136h-74zM106 0v714h482v-81h-390v-231h323v-81h-323v-240h391v-81h-483z" />
    <glyph glyph-name="uni0401" unicode="&#x401;" horiz-adv-x="645" 
d="M204 800v95h87v-95h-87zM421 800v95h85v-95h-85zM106 0v714h482v-81h-390v-231h323v-81h-323v-240h391v-81h-483z" />
    <glyph glyph-name="uni0402" unicode="&#x402;" horiz-adv-x="801" 
d="M599 -203h-68v71h55q38 0 53.5 24.5t15.5 79.5v273q0 72 -13 111q-25 82 -124 82q-75 0 -117.5 -46.5t-46.5 -131.5v-260h-92v632h-234v82h560v-82h-234v-222q67 100 186 100q112 0 155 -64q44 -64 44 -183v-291q-1 -94 -33 -134.5t-107 -40.5z" />
    <glyph glyph-name="uni0403" unicode="&#x403;" horiz-adv-x="578" 
d="M253 777l91 137h93l-109 -137h-75zM106 2v710h442v-88h-350v-622h-92z" />
    <glyph glyph-name="uni0404" unicode="&#x404;" horiz-adv-x="738" 
d="M404 -14q-170 0 -257 102q-87 104 -87 268t86 268.5t252 104.5q111 0 188.5 -48t108.5 -135l-89 -18q-49 118 -202 118q-114 0 -179 -69q-63 -67 -69 -178h299v-83h-300q5 -117 71.5 -181.5t180.5 -64.5q153 0 199 117l89 -22q-32 -87 -107 -133t-184 -46z" />
    <glyph glyph-name="uni0405" unicode="&#x405;" horiz-adv-x="647" 
d="M331 -14q-116 0 -188 51t-91 144l92 20q31 -133 189 -133q74 0 118 32t44 85q0 59 -43 86q-41 26 -148 52q-107 27 -166 66q-68 48 -68 141t67 145q68 53 178 53t178 -48.5t86 -137.5l-92 -12q-27 117 -173 117q-70 0 -111.5 -31t-41.5 -84q0 -52 38 -76q39 -23 140 -50
q121 -33 164 -58q87 -50 87 -153q0 -99 -69 -154t-190 -55z" />
    <glyph glyph-name="uni0406" unicode="&#x406;" horiz-adv-x="305" 
d="M106 0v714h92v-714h-92z" />
    <glyph glyph-name="uni0407" unicode="&#x407;" horiz-adv-x="305" 
d="M1 802v95h86v-95h-86zM217 802v95h85v-95h-85zM106 0v714h92v-714h-92z" />
    <glyph glyph-name="uni0408" unicode="&#x408;" horiz-adv-x="600" 
d="M267 -13q-230 0 -231 247h90q0 -85 34 -125t107 -40t109 43q14 17 22 47q11 40 11 107v448h92v-466q0 -110 -48 -180q-52 -81 -186 -81z" />
    <glyph glyph-name="uni0409" unicode="&#x409;" horiz-adv-x="1189" 
d="M24 0v83h72q78 0 78 121v510h491v-266h249q108 0 171 -58.5t63 -162.5q0 -101 -59 -165q-59 -62 -159 -62h-356v631h-308v-449q0 -88 -39 -135t-115 -47h-88zM665 82h213q177 0 177 143q0 81 -49 109q-49 29 -128 29h-213v-281z" />
    <glyph glyph-name="uni040A" unicode="&#x40a;" horiz-adv-x="1190" 
d="M106 0v714h92v-286h389v286h92v-284h237q106 0 169.5 -56.5t63.5 -154.5q0 -97 -57 -159q-56 -60 -155 -60h-352l2 344h-389v-344h-92zM679 82h201q83 0 130 33.5t47 102.5t-45 98.5t-132 29.5h-201v-264z" />
    <glyph glyph-name="uni040B" unicode="&#x40b;" horiz-adv-x="801" 
d="M261 0v632h-233v82h560v-82h-234v-222q69 100 186 100q112 0 155 -64q44 -64 44 -183v-263h-84v245q0 72 -13 111q-25 82 -124 82q-75 0 -117.5 -46.5t-46.5 -131.5v-260h-93z" />
    <glyph glyph-name="uni040C" unicode="&#x40c;" horiz-adv-x="654" 
d="M304 777l91 137h92l-109 -137h-74zM106 0v714h91v-307q67 0 102 33q35 35 102 160q39 72 77 96t121 24v-80q-40 0 -65 -13q-25 -12 -36 -28q-19 -29 -34 -58q-31 -50 -37 -60q-8 -14 -31 -42q-33 -39 -89 -56q70 -12 116 -47q44 -34 94 -120l117 -215h-103l-93 172
q-52 98 -94 123q-40 25 -147 25v-321h-91z" />
    <glyph glyph-name="uni040D" unicode="&#x40d;" horiz-adv-x="809" 
d="M369 774l-106 136h93l87 -136h-74zM106 0v714h89v-584h4l393 584h110v-714h-88v582h-4l-396 -582h-108z" />
    <glyph glyph-name="uni040E" unicode="&#x40e;" horiz-adv-x="625" 
d="M335 768q-71 0 -115 36.5t-54 91.5h65q6 -35 37.5 -55t66.5 -20t66 20t37 55h65q-10 -55 -53.5 -91.5t-114.5 -36.5zM167 0h-98v79h89q44 0 69 14.5t42 50.5l21 49l-246 521h106l186 -424l178 424h103l-264 -605q-28 -65 -69 -88q-39 -21 -117 -21z" />
    <glyph glyph-name="uni040F" unicode="&#x40f;" horiz-adv-x="801" 
d="M360 -127v127h-254v714h92v-630h406v630h91v-714h-254v-127h-81z" />
    <glyph glyph-name="uni0410" unicode="&#x410;" horiz-adv-x="695" 
d="M664 0h-98l-69 202h-298l-67 -202h-99l256 714h113zM339 626l-115 -348h247l-119 348h-13z" />
    <glyph glyph-name="uni0411" unicode="&#x411;" horiz-adv-x="714" 
d="M106 2v710h473v-76h-380l-1 -210h240q232 0 232 -206q0 -105 -59 -161.5t-168 -56.5h-337zM198 82h209q89 0 130 31.5t41 102.5t-41 101t-126 30h-213v-265z" />
    <glyph glyph-name="uni0412" unicode="&#x412;" horiz-adv-x="670" 
d="M448 368q74 -10 118 -53.5t44 -116.5q0 -98 -61 -148t-179 -50h-264v714h244q230 0 230 -183q0 -65 -35.5 -108.5t-96.5 -54.5zM353 640h-156v-239h157q68 0 103 32t35 90q0 117 -139 117zM197 74h168q152 0 152 130q0 124 -160 124h-160v-254z" />
    <glyph glyph-name="uni0413" unicode="&#x413;" horiz-adv-x="578" 
d="M106 2v710h442v-88h-350v-622h-92z" />
    <glyph glyph-name="uni0414" unicode="&#x414;" horiz-adv-x="864" 
d="M30 -124v210h54q112 70 157 192q46 120 46 310v126h452v-628h70v-210h-82v125h-616v-125h-81zM647 86v545h-268v-99q0 -148 -39 -267q-39 -118 -121 -179h428z" />
    <glyph glyph-name="uni0415" unicode="&#x415;" horiz-adv-x="645" 
d="M106 0v714h482v-81h-390v-231h323v-81h-323v-240h391v-81h-483z" />
    <glyph glyph-name="uni0416" unicode="&#x416;" horiz-adv-x="937" 
d="M423 0v325q-52 -2 -77.5 -8.5t-48.5 -26.5q-21 -18 -39 -46q-13 -19 -44 -79l-87 -164h-102l106 208q48 87 82 121q35 35 101 44q-24 10 -49 30q-29 25 -37 35q-27 38 -28 40q-6 11 -12 20l-13 23l-12 21q-25 47 -46 72t-61 26v80q65 4 117 -37q12 -9 23 -26
q16 -26 17 -28l18 -33l19 -36l20 -34l24 -37q46 -50 57 -57q38 -22 72 -22v303h91v-303q33 3 56 13.5t46 35.5q23 27 25 30q7 8 24 37q5 8 9 15t7 12.5t4 6.5l20 36q30 56 59 85q36 37 116 39v-80q-37 -2 -56 -22q-16 -17 -50 -77q-48 -84 -71 -108q-35 -38 -81 -60
q66 -9 101 -44q34 -32 82 -121l106 -208h-102l-86 164q-52 101 -88 131q-35 29 -121 29v-325h-91z" />
    <glyph glyph-name="uni0417" unicode="&#x417;" horiz-adv-x="651" 
d="M323 -14q-114 0 -184.5 44.5t-88.5 126.5l82 19q31 -112 195 -112q81 0 129 36t48 98q0 126 -180 126h-48v78h46q74 0 117.5 33t43.5 92q0 58 -44.5 92t-118.5 34q-70 0 -118 -27t-67 -77l-78 18q19 80 85.5 121t172.5 41q117 0 185 -52q70 -52 70 -140q0 -62 -38 -106.5
t-99 -57.5v-1q73 -14 116 -61t43 -115q0 -97 -73 -154q-74 -56 -196 -56z" />
    <glyph glyph-name="uni0418" unicode="&#x418;" horiz-adv-x="809" 
d="M106 0v714h89v-584h4l393 584h110v-714h-88v582h-4l-396 -582h-108z" />
    <glyph glyph-name="uni0419" unicode="&#x419;" horiz-adv-x="809" 
d="M401 788q-71 0 -115 36.5t-54 91.5h65q6 -35 37.5 -55t66.5 -20t66 20t37 55h65q-10 -55 -53.5 -91.5t-114.5 -36.5zM106 0v714h89v-584h4l393 584h110v-714h-88v582h-4l-396 -582h-108z" />
    <glyph glyph-name="uni041A" unicode="&#x41a;" horiz-adv-x="654" 
d="M106 0v714h91v-307q67 0 102 33q35 35 102 160q39 72 77 96t121 24v-80q-40 0 -65 -13q-25 -12 -36 -28q-19 -29 -34 -58q-31 -50 -37 -60q-8 -14 -31 -42q-33 -39 -89 -56q70 -12 116 -47q44 -34 94 -120l117 -215h-103l-93 172q-52 98 -94 123q-40 25 -147 25v-321h-91
z" />
    <glyph glyph-name="uni041B" unicode="&#x41b;" horiz-adv-x="820" 
d="M24 -3v82h46q53 0 76.5 33.5t23.5 104.5v496h544v-713h-92v629h-360v-417q0 -111 -44 -163t-139 -52h-55z" />
    <glyph glyph-name="uni041C" unicode="&#x41c;" horiz-adv-x="903" 
d="M106 0v714h128l176 -340l44 -87l42 87l173 340h127v-714h-86v448l1 157l-230 -452h-56l-233 452l1 -157v-448h-87z" />
    <glyph glyph-name="uni041D" unicode="&#x41d;" horiz-adv-x="794" 
d="M106 0v714h92v-314h398v314h92v-714h-92v318h-398v-318h-92z" />
    <glyph glyph-name="uni041E" unicode="&#x41e;" horiz-adv-x="794" 
d="M397 -14q-159 0 -249 107q-89 107 -89 265t91 264q92 107 247 107t247 -107t92 -264q0 -158 -90 -265q-89 -107 -249 -107zM397 68q112 0 178 79q67 79 67 211q0 131 -67 210q-67 81 -178 81q-109 0 -177 -81q-67 -79 -67 -210q0 -132 66 -211q67 -79 178 -79z" />
    <glyph glyph-name="uni041F" unicode="&#x41f;" horiz-adv-x="793" 
d="M106 0v713h581v-713h-92v628h-397v-628h-92z" />
    <glyph glyph-name="uni0420" unicode="&#x420;" horiz-adv-x="664" 
d="M106 0v714h273q116 0 180 -57t64 -160q0 -105 -63 -162t-178 -57h-184v-278h-92zM198 360h181q74 0 115 35t41 98q0 65 -40.5 101t-116.5 36h-180v-270z" />
    <glyph glyph-name="uni0421" unicode="&#x421;" horiz-adv-x="718" 
d="M390 -14q-158 0 -244 104q-86 106 -86 266q0 163 85 267q85 106 239 106q102 0 182 -51q79 -49 105 -155l-91 -19q-17 67 -67 103.5t-127 36.5q-110 0 -169.5 -73.5t-59.5 -209.5q0 -140 61.5 -216.5t173.5 -76.5q74 0 124 34.5t69 100.5l91 -15q-25 -96 -100 -149
t-186 -53z" />
    <glyph glyph-name="uni0422" unicode="&#x422;" horiz-adv-x="616" 
d="M261 0v632h-233v82h560v-82h-235v-632h-92z" />
    <glyph glyph-name="uni0423" unicode="&#x423;" horiz-adv-x="625" 
d="M167 0h-98v79h89q44 0 69 14.5t42 50.5l21 49l-246 521h106l186 -424l178 424h103l-264 -605q-28 -65 -69 -88q-39 -21 -117 -21z" />
    <glyph glyph-name="uni0424" unicode="&#x424;" horiz-adv-x="809" 
d="M362 0v68q-146 6 -225.5 79.5t-79.5 208.5q0 136 78.5 209.5t226.5 80.5v68h85v-68q147 -7 226.5 -81t79.5 -208t-79.5 -208.5t-226.5 -80.5v-68h-85zM362 149v418q-104 -7 -159.5 -60.5t-55.5 -151.5q0 -97 56.5 -150t158.5 -56zM447 567v-419q216 14 216 210
q0 98 -56 151t-160 58z" />
    <glyph glyph-name="uni0425" unicode="&#x425;" horiz-adv-x="635" 
d="M21 0l237 361l-225 353h112l176 -287l172 287h110l-227 -359l237 -355h-116l-184 288l-178 -288h-114z" />
    <glyph glyph-name="uni0426" unicode="&#x426;" horiz-adv-x="810" 
d="M684 -126v126h-578v714h92v-630h387v630h91v-629h88v-211h-80z" />
    <glyph glyph-name="uni0427" unicode="&#x427;" horiz-adv-x="711" 
d="M516 0v256q-68 -90 -214 -90q-121 0 -179.5 61t-58.5 192v295h91v-273q0 -103 37 -146.5t131 -43.5q93 0 142 45t49 131v287h90v-714h-88z" />
    <glyph glyph-name="uni0428" unicode="&#x428;" horiz-adv-x="1005" 
d="M106 0v714h92v-631h258v631h93v-631h258v631h91v-714h-792z" />
    <glyph glyph-name="uni0429" unicode="&#x429;" horiz-adv-x="1033" 
d="M908 -126v126h-802v714h92v-631h258v631h93v-631h259v631h90v-631h91v-209h-81z" />
    <glyph glyph-name="uni042A" unicode="&#x42a;" horiz-adv-x="751" 
d="M136 0v633h-107v81h198v-266h249q108 0 171 -58.5t63 -163.5q0 -102 -59 -164t-159 -62h-356zM227 82h213q178 0 178 143q0 84 -56 114q-46 25 -122 25h-213v-282z" />
    <glyph glyph-name="uni042B" unicode="&#x42b;" horiz-adv-x="991" 
d="M106 0v714h91v-266h250q107 0 170 -58.5t63 -162.5q0 -101 -59 -165q-59 -62 -158 -62h-357zM792 0v714h92v-714h-92zM197 83h213q178 0 178 142q0 81 -49 109q-49 30 -129 30h-213v-281z" />
    <glyph glyph-name="uni042C" unicode="&#x42c;" horiz-adv-x="722" 
d="M106 0v714h91v-266h250q107 0 170 -58.5t63 -162.5q0 -101 -59 -165q-59 -62 -158 -62h-357zM197 83h213q178 0 178 142q0 81 -49 109q-49 30 -129 30h-213v-281z" />
    <glyph glyph-name="uni042D" unicode="&#x42d;" horiz-adv-x="738" 
d="M334 -14q-109 0 -184 46t-106 133l89 22q45 -117 199 -117q113 0 179.5 64.5t71.5 181.5h-299v83h298q-5 111 -69 178q-63 69 -179 69q-153 0 -202 -118l-89 18q31 87 109 135t188 48q166 0 252 -104.5t86 -268.5t-87 -268q-87 -102 -257 -102z" />
    <glyph glyph-name="uni042E" unicode="&#x42e;" horiz-adv-x="985" 
d="M627 -14q-136 0 -209 91q-74 92 -81 244h-139v-321h-92v714h92v-313h140q7 143 85 236q77 92 207 92q140 0 216 -105q78 -105 78 -268q0 -164 -78 -267q-76 -103 -219 -103zM627 70q98 0 151 75t53 211q0 133 -53 212q-52 78 -147 78t-148.5 -77.5t-53.5 -210.5
q0 -138 51 -213t147 -75z" />
    <glyph glyph-name="uni042F" unicode="&#x42f;" horiz-adv-x="715" 
d="M52 -4v83q50 0 70 14q21 15 46 60l29 45l20 27q22 27 54 44q-91 10 -143 69.5t-52 155.5q0 117 70 168q70 52 181 52h282v-714h-92v261h-101q-59 0 -91 -32q-34 -34 -79 -114l-12 -21q-33 -59 -67 -78q-35 -20 -115 -20zM350 345h167v287h-167q-90 0 -135.5 -33
t-45.5 -113q0 -141 181 -141z" />
    <glyph glyph-name="uni0430" unicode="&#x430;" horiz-adv-x="592" 
d="M224 -15q-82 0 -129 44.5t-47 117.5q0 72 51 113.5t138 41.5h173v36q0 69 -35.5 103.5t-99.5 34.5q-103 0 -148 -78l-66 46q66 115 216 115q101 0 161.5 -56.5t60.5 -156.5v-223q0 -43 34 -43h48v-80h-71q-43 0 -66 19.5t-31 62.5q-72 -97 -189 -97zM246 61q81 0 164 80
v93h-149q-57 0 -89.5 -23t-32.5 -64q0 -40 28 -63t79 -23z" />
    <glyph glyph-name="uni0431" unicode="&#x431;" horiz-adv-x="649" 
d="M321 -16q-127 0 -196 79.5t-69 232.5q0 127 41.5 208.5t132.5 123.5l63 29l64 28q61 30 71 63h95q-7 -46 -51 -86q-19 -16 -49 -32t-49 -25q-33 -13 -53 -22q-86 -34 -119 -73q-30 -36 -44 -111q24 53 75.5 82t120.5 29q46 0 88.5 -15.5t77.5 -45.5t55.5 -79t20.5 -111
q0 -128 -73 -201q-74 -74 -202 -74zM328 65q75 1 126 51t51 135q0 84 -48 134t-131 50q-72 0 -124 -46q-51 -46 -53 -136q0 -86 51 -137t128 -51z" />
    <glyph glyph-name="uni0432" unicode="&#x432;" horiz-adv-x="643" 
d="M90 0v543h267q64 0 105 -10q47 -10 76.5 -43t29.5 -85q0 -98 -101 -122q58 -9 91 -43t33 -92q0 -91 -71 -121q-61 -27 -167 -27h-263zM181 309h168q127 0 127 82q0 77 -120 77h-175v-159zM181 76h197q121 0 121 82q0 85 -138 85h-180v-167z" />
    <glyph glyph-name="uni0433" unicode="&#x433;" horiz-adv-x="528" 
d="M90 0v543h418v-84h-328v-459h-90z" />
    <glyph glyph-name="uni0434" unicode="&#x434;" horiz-adv-x="791" 
d="M15 -127v204h68q94 58 132 137q37 78 37 224v105h425v-466h74v-204h-77v127h-583v-127h-76zM208 77h379v387h-249v-71q0 -222 -130 -316z" />
    <glyph glyph-name="uni0435" unicode="&#x435;" horiz-adv-x="602" 
d="M316 -15q-121 0 -193 77q-71 77 -71 207q0 132 70 211t190 79q110 0 173 -75q64 -73 64 -200q0 -16 -2 -38h-401q2 -84 48.5 -133.5t124.5 -49.5q105 0 154 93l75 -35q-32 -64 -93.5 -100t-138.5 -36zM146 316h312q0 79 -40 123t-112 44q-70 0 -112.5 -44.5t-47.5 -122.5
z" />
    <glyph glyph-name="uni0436" unicode="&#x436;" horiz-adv-x="793" 
d="M352 0v239q-56 -2 -84 -22q-28 -19 -63 -81l-75 -135h-101l109 184q52 77 104 97q-56 26 -88 92l-20 44q-6 12 -20 29q-21 28 -77 28v79q88 0 122 -25t67 -105q28 -66 48 -85q21 -18 78 -20v224h89v-224q57 2 77 20q21 18 49 85q18 44 29 64t32 38q20 17 47.5 22.5
t80.5 5.5v-79q-35 0 -57 -13q-22 -12 -31 -27q-6 -11 -24 -50l-5 -11q-19 -38 -38.5 -58.5t-49.5 -33.5q52 -20 104 -97l109 -184h-101l-75 135q-34 60 -64 81q-28 21 -83 22v-239h-89z" />
    <glyph glyph-name="uni0437" unicode="&#x437;" horiz-adv-x="562" 
d="M274 -16q-94 0 -151.5 33t-85.5 104l76 29q24 -46 60.5 -67t102.5 -21q71 0 108.5 25t37.5 71q0 87 -154 87h-44v70q97 0 138 18t41 65q0 41 -35.5 63.5t-96.5 22.5q-117 0 -152 -80l-78 24q30 68 86 98.5t147 30.5q104 0 159 -41t55 -112q0 -50 -28.5 -81t-75.5 -40
q128 -23 128 -132q0 -79 -62.5 -123t-175.5 -44z" />
    <glyph glyph-name="uni0438" unicode="&#x438;" horiz-adv-x="686" 
d="M596 0h-89v415l-324 -415h-93v543h90v-410l317 410h99v-543z" />
    <glyph glyph-name="uni0439" unicode="&#x439;" horiz-adv-x="686" 
d="M349 599q-71 0 -115 36.5t-54 91.5h65q6 -35 37.5 -55t66.5 -20t66 20t37 55h65q-10 -55 -53.5 -91.5t-114.5 -36.5zM596 0h-89v415l-324 -415h-93v543h90v-410l317 410h99v-543z" />
    <glyph glyph-name="uni043A" unicode="&#x43a;" horiz-adv-x="552" 
d="M90 0v543h89v-224q51 2 74 11q26 9 41 28t34 66q30 73 73 101.5t116 28.5v-79q-48 0 -71 -23q-20 -21 -46 -78q-36 -73 -94 -92q62 -23 106 -97l113 -184h-100l-80 135q-36 62 -68 83q-31 21 -98 22v-241h-89z" />
    <glyph glyph-name="uni043B" unicode="&#x43b;" horiz-adv-x="661" 
d="M22 -2v77q57 -4 83 27.5t26 105.5v335h440v-543h-90v460h-261v-258q0 -110 -49.5 -159.5t-148.5 -44.5z" />
    <glyph glyph-name="uni043C" unicode="&#x43c;" horiz-adv-x="784" 
d="M90 0v543h130l173 -405l171 405h130v-543h-90v421l-184 -422h-53l-187 422v-421h-90z" />
    <glyph glyph-name="uni043D" unicode="&#x43d;" horiz-adv-x="677" 
d="M90 0v543h90v-233h318v233h89v-543h-89v232h-318v-232h-90z" />
    <glyph glyph-name="uni043E" unicode="&#x43e;" horiz-adv-x="619" 
d="M309 -15q-123 0 -191 83q-66 84 -66 204q0 119 66 203q68 84 191 84q64 0 114.5 -24t81 -64.5t46.5 -91.5t16 -107q0 -121 -67 -204q-66 -83 -191 -83zM309 63q75 0 120.5 57.5t45.5 151.5t-45 151.5t-120 57.5t-120.5 -58t-45.5 -152t45 -151t120 -57z" />
    <glyph glyph-name="uni043F" unicode="&#x43f;" horiz-adv-x="667" 
d="M90 0v543h487v-543h-89v459h-308v-459h-90z" />
    <glyph glyph-name="uni0440" unicode="&#x440;" horiz-adv-x="643" 
d="M90 -202v745h81v-100q63 116 186 116q109 0 170 -79q62 -80 62 -210q0 -134 -63.5 -209t-176.5 -75q-56 0 -100.5 28.5t-70.5 73.5v-290h-88zM337 60q77 0 118.5 54t41.5 156t-41.5 158.5t-117.5 56.5t-118 -55t-42 -160q0 -101 41.5 -155.5t117.5 -54.5z" />
    <glyph glyph-name="uni0441" unicode="&#x441;" horiz-adv-x="583" 
d="M309 -15q-118 0 -188 76q-69 77 -69 206q0 130 69 211t188 81q87 0 147.5 -45.5t83.5 -129.5l-86 -13q-15 51 -53 80t-92 29q-76 0 -121 -55t-45 -151q0 -95 44 -152.5t122 -57.5q55 0 95 29t54 80l87 -13q-19 -83 -81 -129t-155 -46z" />
    <glyph glyph-name="uni0442" unicode="&#x442;" horiz-adv-x="517" 
d="M214 -1v460h-193v84h475v-84h-193v-460h-89z" />
    <glyph glyph-name="uni0443" unicode="&#x443;" horiz-adv-x="565" 
d="M160 -196h-117v80h98q24 0 41 15t33 51l25 58l-212 535h98l159 -436l161 436h95l-248 -634q-23 -57 -54 -81t-79 -24z" />
    <glyph glyph-name="uni0444" unicode="&#x444;" horiz-adv-x="909" 
d="M411 -206v194h-122q-108 0 -171.5 73t-63.5 211q0 141 62 210.5t171 69.5h122l2 209h89v-209h121q111 0 172.5 -69.5t61.5 -210.5q0 -138 -63 -211t-172 -73h-120v-194h-89zM302 67h107v406h-111q-154 0 -154 -205q0 -201 158 -201zM500 67h107q159 0 159 201
q0 205 -154 205h-112v-406z" />
    <glyph glyph-name="uni0445" unicode="&#x445;" horiz-adv-x="551" 
d="M16 0l200 276l-187 267h108l139 -208l136 208h106l-181 -264l201 -279h-111l-149 217l-153 -217h-109z" />
    <glyph glyph-name="uni0446" unicode="&#x446;" horiz-adv-x="686" 
d="M571 -127v127h-481v543h90v-463h294v463h90v-463h92v-207h-85z" />
    <glyph glyph-name="uni0447" unicode="&#x447;" horiz-adv-x="633" 
d="M456 -1v192q-53 -98 -184 -98q-101 0 -158.5 59.5t-57.5 161.5v229h89v-220q0 -65 40 -105t110 -40q71 0 115 47t44 114v204h89v-544h-87z" />
    <glyph glyph-name="uni0448" unicode="&#x448;" horiz-adv-x="825" 
d="M90 0v543h88v-463h197v463h88v-463h185v463h87v-543h-645z" />
    <glyph glyph-name="uni0449" unicode="&#x449;" horiz-adv-x="851" 
d="M740 -122v122h-650v543h88v-461h196v461h90v-461h184v461h87v-461h82v-204h-77z" />
    <glyph glyph-name="uni044A" unicode="&#x44a;" horiz-adv-x="627" 
d="M124 0v465h-98v79h185v-183h161q219 0 219 -175q0 -87 -54 -136.5t-159 -49.5h-254zM211 75h148q142 0 142 108q0 54 -36 79t-110 25h-144v-212z" />
    <glyph glyph-name="uni044B" unicode="&#x44b;" horiz-adv-x="848" 
d="M90 0v543h87v-182h161q219 0 219 -175q0 -87 -54 -136.5t-159 -49.5h-254zM812 0h-59q-53 1 -79.5 28.5t-26.5 77.5v437h90v-423q0 -24 8 -32.5t32 -8.5h35v-79zM177 75h148q143 0 143 107q0 55 -36 80t-111 25h-144v-212z" />
    <glyph glyph-name="uni044C" unicode="&#x44c;" horiz-adv-x="594" 
d="M90 0v543h87v-182h161q219 0 219 -175q0 -87 -54 -136.5t-159 -49.5h-254zM177 75h148q143 0 143 107q0 55 -36 80t-111 25h-144v-212z" />
    <glyph glyph-name="uni044D" unicode="&#x44d;" horiz-adv-x="595" 
d="M266 -16q-85 0 -145.5 36.5t-83.5 103.5l89 16q36 -73 142 -73q167 0 176 162h-223v77h224q-5 79 -51 124t-128 45q-103 0 -140 -76l-87 20q21 64 82 100.5t151 36.5q132 0 201 -81t69 -206q0 -135 -74 -210t-202 -75z" />
    <glyph glyph-name="uni044E" unicode="&#x44e;" horiz-adv-x="792" 
d="M509 -16q-104 0 -161 63t-67 182h-102v-230h-90v544h90v-229h102q10 114 67 179t159 65q110 0 170.5 -78.5t60.5 -215.5q0 -132 -58 -206t-171 -74zM647 267q0 102 -35 157t-103 55q-138 0 -138 -210q0 -205 138 -205t138 203z" />
    <glyph glyph-name="uni044F" unicode="&#x44f;" horiz-adv-x="606" 
d="M137 2h-80v71h60q41 0 61.5 26t33.5 90q-81 16 -118.5 58t-37.5 115q0 181 230 181h230v-543h-88v182h-130q-26 -100 -60 -141q-34 -39 -101 -39zM279 260h149v204h-147q-135 0 -135 -104q0 -100 133 -100z" />
    <glyph glyph-name="uni0450" unicode="&#x450;" horiz-adv-x="602" 
d="M273 599l-106 136h93l87 -136h-74zM316 -15q-121 0 -193 77q-71 77 -71 207q0 132 70 211t190 79q110 0 173 -75q64 -73 64 -200q0 -16 -2 -38h-401q2 -84 48.5 -133.5t124.5 -49.5q105 0 154 93l75 -35q-32 -64 -93.5 -100t-138.5 -36zM146 316h312q0 79 -40 123
t-112 44q-70 0 -112.5 -44.5t-47.5 -122.5z" />
    <glyph glyph-name="uni0451" unicode="&#x451;" horiz-adv-x="602" 
d="M158 625v95h86v-95h-86zM374 625v95h85v-95h-85zM316 -15q-121 0 -193 77q-71 77 -71 207q0 132 70 211t190 79q110 0 173 -75q64 -73 64 -200q0 -16 -2 -38h-401q2 -84 48.5 -133.5t124.5 -49.5q105 0 154 93l75 -35q-32 -64 -93.5 -100t-138.5 -36zM146 316h312
q0 79 -40 123t-112 44q-70 0 -112.5 -44.5t-47.5 -122.5z" />
    <glyph glyph-name="uni0452" unicode="&#x452;" horiz-adv-x="648" 
d="M422 -204h-69v79l56 -1q38 0 52.5 22t14.5 76v319q0 72 -13 110q-24 81 -122 81q-78 0 -119.5 -51t-41.5 -142v-289h-90v622h-90v64h90v75h87v-75h196v-64h-196v-170q51 105 187 105q109 0 155 -61.5t46 -186.5l1 -337q-1 -95 -34 -135.5t-110 -40.5z" />
    <glyph glyph-name="uni0453" unicode="&#x453;" horiz-adv-x="528" 
d="M265 598l91 137h93l-109 -137h-75zM90 0v543h418v-84h-328v-459h-90z" />
    <glyph glyph-name="uni0454" unicode="&#x454;" horiz-adv-x="595" 
d="M329 -16q-129 0 -203 75t-74 210q0 125 69 206q70 81 202 81q90 0 151 -36.5t82 -100.5l-88 -20q-36 76 -139 76q-82 0 -128.5 -45t-50.5 -124h224v-77h-223q7 -162 176 -162q105 0 141 73l90 -16q-23 -67 -83.5 -103.5t-145.5 -36.5z" />
    <glyph glyph-name="uni0455" unicode="&#x455;" horiz-adv-x="531" 
d="M44 134l83 16q20 -89 149 -89q57 0 90.5 19.5t33.5 57.5q0 36 -30 58q-10 10 -36 18q-33 11 -94 23q-90 19 -135 54t-45 112q0 71 55 113.5t146 42.5q87 0 142.5 -40t68.5 -110l-76 -13q-23 89 -130 89q-57 0 -90 -22.5t-33 -61.5q0 -41 31 -57q32 -17 112 -33
q86 -18 137 -50q60 -37 60 -122q0 -74 -57.5 -114t-155.5 -40q-193 0 -226 149z" />
    <glyph glyph-name="uni0456" unicode="&#x456;" horiz-adv-x="297" 
d="M87 639v106h92v-106h-92zM265 0h-70q-53 1 -79.5 28.5t-26.5 77.5v437h90v-423q0 -24 8 -32.5t32 -8.5h46v-79z" />
    <glyph glyph-name="uni0457" unicode="&#x457;" horiz-adv-x="287" 
d="M-16 624v94h86v-94h-86zM200 624v94h85v-94h-85zM254 0h-59q-53 1 -79.5 28.5t-26.5 77.5v437h90v-423q0 -24 8 -32.5t32 -8.5h35v-79z" />
    <glyph glyph-name="uni0458" unicode="&#x458;" horiz-adv-x="340" 
d="M159 639v106h92v-106h-92zM27 543h223v-580q0 -80 -34.5 -120.5t-109.5 -40.5h-93v80h82q66 0 66 77v502h-134v82z" />
    <glyph glyph-name="uni0459" unicode="&#x459;" horiz-adv-x="997" 
d="M21 -1v77h44q41 0 59 24.5t18 79.5v363h439v-182h161q218 0 218 -175q0 -87 -54 -136.5t-159 -49.5h-254v460h-261v-289q0 -172 -159 -172h-52zM581 75h148q142 0 142 107q0 55 -36 80t-111 25h-143v-212z" />
    <glyph glyph-name="uni045A" unicode="&#x45a;" horiz-adv-x="966" 
d="M90 0v543h90v-220h289v220h90v-198h160q211 0 211 -167q0 -83 -52.5 -130.5t-152.5 -47.5h-256v239h-289v-239h-90zM559 75h147q135 0 135 100q0 50 -34 73t-105 23h-143v-196z" />
    <glyph glyph-name="uni045B" unicode="&#x45b;" horiz-adv-x="648" 
d="M90 0v622h-90v64h90v75h87v-75h196v-64h-196v-172q50 107 187 107q109 0 155 -61.5t46 -186.5v-309h-89v291q0 72 -13 110q-24 81 -122 81q-78 0 -119.5 -51t-41.5 -142v-289h-90z" />
    <glyph glyph-name="uni045C" unicode="&#x45c;" horiz-adv-x="552" 
d="M251 577l91 137h92l-108 -137h-75zM90 0v543h89v-224q51 2 74 11q26 9 41 28t34 66q30 73 73 101.5t116 28.5v-79q-48 0 -71 -23q-20 -21 -46 -78q-36 -73 -94 -92q62 -23 106 -97l113 -184h-100l-80 135q-36 62 -68 83q-31 21 -98 22v-241h-89z" />
    <glyph glyph-name="uni045D" unicode="&#x45d;" horiz-adv-x="686" 
d="M317 584l-106 137h93l87 -137h-74zM596 0h-89v415l-324 -415h-93v543h90v-410l317 410h99v-543z" />
    <glyph glyph-name="uni045E" unicode="&#x45e;" horiz-adv-x="565" 
d="M284 603q-71 0 -114.5 36.5t-53.5 91.5h65q6 -35 37 -55t66 -20t66.5 20t37.5 55h65q-10 -55 -54 -91.5t-115 -36.5zM160 -196h-117v80h98q24 0 41 15t33 51l25 58l-212 535h98l159 -436l161 436h95l-248 -634q-23 -57 -54 -81t-79 -24z" />
    <glyph glyph-name="uni045F" unicode="&#x45f;" horiz-adv-x="648" 
d="M285 -127v127h-195v543h90v-460h289v460h89v-543h-189v-127h-84z" />
    <glyph glyph-name="uni0490" unicode="&#x490;" horiz-adv-x="598" 
d="M106 2v710h371v100h91v-186h-370v-624h-92z" />
    <glyph glyph-name="uni0491" unicode="&#x491;" horiz-adv-x="540" 
d="M90 -1v545h341v90h89v-175h-340v-460h-90z" />
    <glyph glyph-name="Wgrave" unicode="&#x1e80;" horiz-adv-x="950" 
d="M437 774l-106 136h93l87 -136h-74zM39 714h92l139 -589l165 589h78l169 -589l136 589h92l-172 -714h-99l-166 582l-162 -582h-97z" />
    <glyph glyph-name="wgrave" unicode="&#x1e81;" horiz-adv-x="817" 
d="M372 590l-106 136h93l87 -136h-74zM171 0l-136 543h97l101 -449l130 449h88l132 -449l101 449h97l-136 -543h-108l-129 432l-128 -432h-109z" />
    <glyph glyph-name="Wacute" unicode="&#x1e82;" horiz-adv-x="950" 
d="M431 777l91 137h93l-109 -137h-75zM39 714h92l139 -589l165 589h78l169 -589l136 589h92l-172 -714h-99l-166 582l-162 -582h-97z" />
    <glyph glyph-name="wacute" unicode="&#x1e83;" horiz-adv-x="817" 
d="M366 593l91 137h93l-109 -137h-75zM171 0l-136 543h97l101 -449l130 449h88l132 -449l101 449h97l-136 -543h-108l-129 432l-128 -432h-109z" />
    <glyph glyph-name="Wdieresis" unicode="&#x1e84;" horiz-adv-x="950" 
d="M322 800v95h86v-95h-86zM538 800v95h86v-95h-86zM39 714h92l139 -589l165 589h78l169 -589l136 589h92l-172 -714h-99l-166 582l-162 -582h-97z" />
    <glyph glyph-name="wdieresis" unicode="&#x1e85;" horiz-adv-x="817" 
d="M257 616v95h86v-95h-86zM473 616v95h86v-95h-86zM171 0l-136 543h97l101 -449l130 449h88l132 -449l101 449h97l-136 -543h-108l-129 432l-128 -432h-109z" />
    <glyph glyph-name="uni1E9E" unicode="&#x1e9e;" horiz-adv-x="685" 
d="M415 -9q-71 0 -152 27l19 77q60 -20 121 -20q128 0 128 124q0 130 -206 135v80q54 5 115 61q61 58 61 139q-31 37 -134 37q-82 0 -127.5 -41.5t-46.5 -119.5l-4 -490h-90v492q0 109 71 175q72 66 196 66q84 0 144.5 -23t83.5 -56q0 -96 -54 -171q-55 -75 -125 -100
q60 -6 130 -47q37 -22 60 -61.5t23 -86.5q0 -93 -55.5 -145t-157.5 -52z" />
    <glyph glyph-name="uni1EA0" unicode="&#x1ea0;" horiz-adv-x="695" 
d="M402 714l262 -714h-98l-69 202h-298l-67 -202h-99l256 714h113zM339 626l-115 -348h247l-119 348h-13zM399 -152h-92v107h92v-107z" />
    <glyph glyph-name="uni1EA1" unicode="&#x1ea1;" horiz-adv-x="592" 
d="M224 -15q-82 0 -129 44.5t-47 117.5q0 72 51 113.5t138 41.5h173v36q0 69 -35.5 103.5t-99.5 34.5q-103 0 -148 -78l-66 46q66 115 216 115q101 0 161.5 -56.5t60.5 -156.5v-223q0 -43 34 -43h48v-80h-71q-43 0 -66 19.5t-31 62.5q-72 -97 -189 -97zM246 61q81 0 164 80
v93h-149q-57 0 -89.5 -23t-32.5 -64q0 -40 28 -63t79 -23zM259 -155v107h92v-107h-92z" />
    <glyph glyph-name="uni1EA2" unicode="&#x1ea2;" horiz-adv-x="695" 
d="M340 907q-26 0 -58 -17l-19 42q40 22 94 22q50 0 81.5 -22t31.5 -63q0 -38 -26 -58.5t-71 -18.5v-54h-60l-1 72v23q37 -5 63.5 4.5t26.5 30.5q0 39 -62 39zM664 0h-98l-69 202h-298l-67 -202h-99l256 714h113zM339 626l-115 -348h247l-119 348h-13z" />
    <glyph glyph-name="uni1EA3" unicode="&#x1ea3;" horiz-adv-x="592" 
d="M289 805q50 0 81.5 -22t31.5 -63q0 -38 -26 -58.5t-71 -18.5v-54h-60l-1 72v23q38 -5 64 4.5t26 30.5q0 38 -61 38q-31 0 -59 -16l-19 42q40 22 94 22zM224 -15q-82 0 -129 44.5t-47 117.5q0 72 51 113.5t138 41.5h173v36q0 69 -35.5 103.5t-99.5 34.5q-103 0 -148 -78
l-66 46q66 115 216 115q101 0 161.5 -56.5t60.5 -156.5v-223q0 -43 34 -43h48v-80h-71q-43 0 -66 19.5t-31 62.5q-72 -97 -189 -97zM246 61q81 0 164 80v93h-149q-57 0 -89.5 -23t-32.5 -64q0 -40 28 -63t79 -23z" />
    <glyph glyph-name="uni1EA4" unicode="&#x1ea4;" horiz-adv-x="695" 
d="M477 989h74l-70 -88h-62zM434 758l-89 95l-91 -95h-85l137 144h78l136 -144h-86zM664 0h-98l-69 202h-298l-67 -202h-99l256 714h113zM339 626l-115 -348h247l-119 348h-13z" />
    <glyph glyph-name="uni1EA5" unicode="&#x1ea5;" horiz-adv-x="592" 
d="M351 752l59 88h74l-71 -88h-62zM102 609l137 144h77l136 -144h-86l-89 95l-90 -95h-85zM224 -15q-82 0 -129 44.5t-47 117.5q0 72 51 113.5t138 41.5h173v36q0 69 -35.5 103.5t-99.5 34.5q-103 0 -148 -78l-66 46q66 115 216 115q101 0 161.5 -56.5t60.5 -156.5v-223
q0 -43 34 -43h48v-80h-71q-43 0 -66 19.5t-31 62.5q-72 -97 -189 -97zM246 61q81 0 164 80v93h-149q-57 0 -89.5 -23t-32.5 -64q0 -40 28 -63t79 -23z" />
    <glyph glyph-name="uni1EA6" unicode="&#x1ea6;" horiz-adv-x="695" 
d="M429 991l58 -88h-62l-70 88h74zM434 758l-89 95l-91 -95h-85l137 144h78l136 -144h-86zM664 0h-98l-69 202h-298l-67 -202h-99l256 714h113zM339 626l-115 -348h247l-119 348h-13z" />
    <glyph glyph-name="uni1EA7" unicode="&#x1ea7;" horiz-adv-x="592" 
d="M287 842h74l59 -88h-62zM102 609l137 144h77l136 -144h-86l-89 95l-90 -95h-85zM224 -15q-82 0 -129 44.5t-47 117.5q0 72 51 113.5t138 41.5h173v36q0 69 -35.5 103.5t-99.5 34.5q-103 0 -148 -78l-66 46q66 115 216 115q101 0 161.5 -56.5t60.5 -156.5v-223
q0 -43 34 -43h48v-80h-71q-43 0 -66 19.5t-31 62.5q-72 -97 -189 -97zM246 61q81 0 164 80v93h-149q-57 0 -89.5 -23t-32.5 -64q0 -40 28 -63t79 -23z" />
    <glyph glyph-name="uni1EA8" unicode="&#x1ea8;" horiz-adv-x="695" 
d="M452 1019q-26 0 -49 -13l-16 34q55 28 113 13.5t58 -65.5q0 -68 -81 -64v-45h-48l-1 60l-1 19q31 -5 53 3t22 26q0 32 -50 32zM434 758l-89 95l-91 -95h-85l137 144h78l136 -144h-86zM664 0h-98l-69 202h-298l-67 -202h-99l256 714h113zM339 626l-115 -348h247l-119 348
h-13z" />
    <glyph glyph-name="uni1EA9" unicode="&#x1ea9;" horiz-adv-x="592" 
d="M397 909q40 0 66.5 -18t26.5 -52q0 -69 -80 -64v-45h-49v60l-1 18q32 -4 53.5 4t21.5 26q0 32 -51 32q-25 0 -48 -13l-16 33q34 19 77 19zM102 609l137 144h77l136 -144h-86l-89 95l-90 -95h-85zM224 -15q-82 0 -129 44.5t-47 117.5q0 72 51 113.5t138 41.5h173v36
q0 69 -35.5 103.5t-99.5 34.5q-103 0 -148 -78l-66 46q66 115 216 115q101 0 161.5 -56.5t60.5 -156.5v-223q0 -43 34 -43h48v-80h-71q-43 0 -66 19.5t-31 62.5q-72 -97 -189 -97zM246 61q81 0 164 80v93h-149q-57 0 -89.5 -23t-32.5 -64q0 -40 28 -63t79 -23z" />
    <glyph glyph-name="uni1EAA" unicode="&#x1eaa;" horiz-adv-x="695" 
d="M275 986q-35 0 -43 -41h-54q6 52 30.5 79t62.5 27q31 0 81 -27q50 -26 71 -26q37 0 45 41h54q-7 -52 -31 -79t-62 -27q-29 0 -81 26q-51 27 -73 27zM434 758l-89 95l-91 -95h-85l137 144h78l136 -144h-86zM664 0h-98l-69 202h-298l-67 -202h-99l256 714h113zM339 626
l-115 -348h247l-119 348h-13z" />
    <glyph glyph-name="uni1EAB" unicode="&#x1eab;" horiz-adv-x="592" 
d="M362 784q-29 0 -81 26q-51 27 -74 27q-34 0 -42 -41h-55q6 52 31 79t62 27q30 0 80 -27q52 -26 73 -26q36 0 44 41h54q-7 -52 -31 -79t-61 -27zM102 609l137 144h77l136 -144h-86l-89 95l-90 -95h-85zM224 -15q-82 0 -129 44.5t-47 117.5q0 72 51 113.5t138 41.5h173v36
q0 69 -35.5 103.5t-99.5 34.5q-103 0 -148 -78l-66 46q66 115 216 115q101 0 161.5 -56.5t60.5 -156.5v-223q0 -43 34 -43h48v-80h-71q-43 0 -66 19.5t-31 62.5q-72 -97 -189 -97zM246 61q81 0 164 80v93h-149q-57 0 -89.5 -23t-32.5 -64q0 -40 28 -63t79 -23z" />
    <glyph glyph-name="uni1EAC" unicode="&#x1eac;" horiz-adv-x="695" 
d="M434 758l-89 95l-91 -95h-85l137 144h78l136 -144h-86zM402 714l262 -714h-98l-69 202h-298l-67 -202h-99l256 714h113zM339 626l-115 -348h247l-119 348h-13zM399 -152h-92v107h92v-107z" />
    <glyph glyph-name="uni1EAD" unicode="&#x1ead;" horiz-adv-x="592" 
d="M102 609l137 144h77l136 -144h-86l-89 95l-90 -95h-85zM224 -15q-82 0 -129 44.5t-47 117.5q0 72 51 113.5t138 41.5h173v36q0 69 -35.5 103.5t-99.5 34.5q-103 0 -148 -78l-66 46q66 115 216 115q101 0 161.5 -56.5t60.5 -156.5v-223q0 -43 34 -43h48v-80h-71
q-43 0 -66 19.5t-31 62.5q-72 -97 -189 -97zM246 61q81 0 164 80v93h-149q-57 0 -89.5 -23t-32.5 -64q0 -40 28 -63t79 -23zM259 -155v107h92v-107h-92z" />
    <glyph glyph-name="uni1EAE" unicode="&#x1eae;" horiz-adv-x="695" 
d="M366 976h74l-71 -88h-62zM341 770q-71 0 -115 36.5t-54 91.5h65q6 -35 37.5 -55t66.5 -20t66 20t37 55h65q-10 -55 -53.5 -91.5t-114.5 -36.5zM664 0h-98l-69 202h-298l-67 -202h-99l256 714h113zM339 626l-115 -348h247l-119 348h-13z" />
    <glyph glyph-name="uni1EAF" unicode="&#x1eaf;" horiz-adv-x="592" 
d="M240 739l58 88h74l-70 -88h-62zM104 749h65q8 -35 38.5 -55t65.5 -20t65.5 20t38.5 55h65q-10 -55 -54 -91.5t-115 -36.5t-115 36.5t-54 91.5zM224 -15q-82 0 -129 44.5t-47 117.5q0 72 51 113.5t138 41.5h173v36q0 69 -35.5 103.5t-99.5 34.5q-103 0 -148 -78l-66 46
q66 115 216 115q101 0 161.5 -56.5t60.5 -156.5v-223q0 -43 34 -43h48v-80h-71q-43 0 -66 19.5t-31 62.5q-72 -97 -189 -97zM246 61q81 0 164 80v93h-149q-57 0 -89.5 -23t-32.5 -64q0 -40 28 -63t79 -23z" />
    <glyph glyph-name="uni1EB0" unicode="&#x1eb0;" horiz-adv-x="695" 
d="M318 973l59 -88h-62l-70 88h73zM341 770q-71 0 -115 36.5t-54 91.5h65q6 -35 37.5 -55t66.5 -20t66 20t37 55h65q-10 -55 -53.5 -91.5t-114.5 -36.5zM664 0h-98l-69 202h-298l-67 -202h-99l256 714h113zM339 626l-115 -348h247l-119 348h-13z" />
    <glyph glyph-name="uni1EB1" unicode="&#x1eb1;" horiz-adv-x="592" 
d="M177 824h74l59 -88h-62zM104 749h65q8 -35 38.5 -55t65.5 -20t65.5 20t38.5 55h65q-10 -55 -54 -91.5t-115 -36.5t-115 36.5t-54 91.5zM224 -15q-82 0 -129 44.5t-47 117.5q0 72 51 113.5t138 41.5h173v36q0 69 -35.5 103.5t-99.5 34.5q-103 0 -148 -78l-66 46
q66 115 216 115q101 0 161.5 -56.5t60.5 -156.5v-223q0 -43 34 -43h48v-80h-71q-43 0 -66 19.5t-31 62.5q-72 -97 -189 -97zM246 61q81 0 164 80v93h-149q-57 0 -89.5 -23t-32.5 -64q0 -40 28 -63t79 -23z" />
    <glyph glyph-name="uni1EB2" unicode="&#x1eb2;" horiz-adv-x="695" 
d="M338 1027q-23 0 -49 -14l-16 34q37 18 78 18q40 0 66.5 -18t26.5 -52q0 -71 -81 -63v-46h-48l-1 60l-1 19q31 -5 53 3t22 26q0 33 -50 33zM341 770q-71 0 -115 36.5t-54 91.5h65q6 -35 37.5 -55t66.5 -20t66 20t37 55h65q-10 -55 -53.5 -91.5t-114.5 -36.5zM664 0h-98
l-69 202h-298l-67 -202h-99l256 714h113zM339 626l-115 -348h247l-119 348h-13z" />
    <glyph glyph-name="uni1EB3" unicode="&#x1eb3;" horiz-adv-x="592" 
d="M283 916q40 0 66.5 -18t26.5 -52q0 -69 -80 -64v-45h-49v60l-1 18q32 -4 53.5 4t21.5 26q0 32 -51 32q-25 0 -48 -13l-16 33q34 19 77 19zM104 749h65q8 -35 38.5 -55t65.5 -20t65.5 20t38.5 55h65q-10 -55 -54 -91.5t-115 -36.5t-115 36.5t-54 91.5zM224 -15
q-82 0 -129 44.5t-47 117.5q0 72 51 113.5t138 41.5h173v36q0 69 -35.5 103.5t-99.5 34.5q-103 0 -148 -78l-66 46q66 115 216 115q101 0 161.5 -56.5t60.5 -156.5v-223q0 -43 34 -43h48v-80h-71q-43 0 -66 19.5t-31 62.5q-72 -97 -189 -97zM246 61q81 0 164 80v93h-149
q-57 0 -89.5 -23t-32.5 -64q0 -40 28 -63t79 -23z" />
    <glyph glyph-name="uni1EB4" unicode="&#x1eb4;" horiz-adv-x="695" 
d="M269 987q-35 0 -43 -41h-54q6 51 31 78.5t62 27.5q31 0 81 -27q50 -26 71 -26q37 0 45 41h54q-7 -52 -31.5 -79.5t-61.5 -27.5q-30 0 -81 27t-73 27zM341 770q-71 0 -115 36.5t-54 91.5h65q6 -35 37.5 -55t66.5 -20t66 20t37 55h65q-10 -55 -53.5 -91.5t-114.5 -36.5z
M664 0h-98l-69 202h-298l-67 -202h-99l256 714h113zM339 626l-115 -348h247l-119 348h-13z" />
    <glyph glyph-name="uni1EB5" unicode="&#x1eb5;" horiz-adv-x="592" 
d="M356 784q-30 0 -81 27t-74 27q-16 0 -27 -11t-15 -31h-55q6 52 31 79.5t62 27.5q31 0 80 -27q52 -26 73 -26q36 0 44 41h54q-6 -52 -30.5 -79.5t-61.5 -27.5zM104 749h65q8 -35 38.5 -55t65.5 -20t65.5 20t38.5 55h65q-10 -55 -54 -91.5t-115 -36.5t-115 36.5t-54 91.5z
M224 -15q-82 0 -129 44.5t-47 117.5q0 72 51 113.5t138 41.5h173v36q0 69 -35.5 103.5t-99.5 34.5q-103 0 -148 -78l-66 46q66 115 216 115q101 0 161.5 -56.5t60.5 -156.5v-223q0 -43 34 -43h48v-80h-71q-43 0 -66 19.5t-31 62.5q-72 -97 -189 -97zM246 61q81 0 164 80v93
h-149q-57 0 -89.5 -23t-32.5 -64q0 -40 28 -63t79 -23z" />
    <glyph glyph-name="uni1EB6" unicode="&#x1eb6;" horiz-adv-x="695" 
d="M341 770q-71 0 -115 36.5t-54 91.5h65q6 -35 37.5 -55t66.5 -20t66 20t37 55h65q-10 -55 -53.5 -91.5t-114.5 -36.5zM402 714l262 -714h-98l-69 202h-298l-67 -202h-99l256 714h113zM339 626l-115 -348h247l-119 348h-13zM399 -152h-92v107h92v-107z" />
    <glyph glyph-name="uni1EB7" unicode="&#x1eb7;" horiz-adv-x="592" 
d="M104 749h65q8 -35 38.5 -55t65.5 -20t65.5 20t38.5 55h65q-10 -55 -54 -91.5t-115 -36.5t-115 36.5t-54 91.5zM224 -15q-82 0 -129 44.5t-47 117.5q0 72 51 113.5t138 41.5h173v36q0 69 -35.5 103.5t-99.5 34.5q-103 0 -148 -78l-66 46q66 115 216 115q101 0 161.5 -56.5
t60.5 -156.5v-223q0 -43 34 -43h48v-80h-71q-43 0 -66 19.5t-31 62.5q-72 -97 -189 -97zM246 61q81 0 164 80v93h-149q-57 0 -89.5 -23t-32.5 -64q0 -40 28 -63t79 -23zM259 -155v107h92v-107h-92z" />
    <glyph glyph-name="uni1EB8" unicode="&#x1eb8;" horiz-adv-x="645" 
d="M106 0v714h482v-81h-390v-231h323v-81h-323v-240h391v-81h-483zM296 -152v107h92v-107h-92z" />
    <glyph glyph-name="uni1EB9" unicode="&#x1eb9;" horiz-adv-x="602" 
d="M316 -15q-121 0 -193 77q-71 77 -71 207q0 132 70 211t190 79q110 0 173 -75q64 -73 64 -200q0 -16 -2 -38h-401q2 -84 48.5 -133.5t124.5 -49.5q105 0 154 93l75 -35q-32 -64 -93.5 -100t-138.5 -36zM146 316h312q0 79 -40 123t-112 44q-70 0 -112.5 -44.5t-47.5 -122.5
zM266 -152v107h91v-107h-91z" />
    <glyph glyph-name="uni1EBA" unicode="&#x1eba;" horiz-adv-x="645" 
d="M356 970q50 0 81.5 -22t31.5 -63q0 -38 -26 -58.5t-71 -18.5v-54h-60l-1 72v23q37 -5 63.5 4.5t26.5 30.5q0 39 -61 39q-27 0 -59 -17l-19 42q40 22 94 22zM106 0v714h482v-81h-390v-231h323v-81h-323v-240h391v-81h-483z" />
    <glyph glyph-name="uni1EBB" unicode="&#x1ebb;" horiz-adv-x="602" 
d="M320 799q50 0 81.5 -22.5t31.5 -63.5q0 -38 -26 -58.5t-71 -18.5v-54h-60l-1 73v22q37 -5 63.5 4.5t26.5 30.5q0 39 -61 39q-27 0 -59 -17l-19 42q43 23 94 23zM316 -15q-121 0 -193 77q-71 77 -71 207q0 132 70 211t190 79q110 0 173 -75q64 -73 64 -200q0 -16 -2 -38
h-401q2 -84 48.5 -133.5t124.5 -49.5q105 0 154 93l75 -35q-32 -64 -93.5 -100t-138.5 -36zM146 316h312q0 79 -40 123t-112 44q-70 0 -112.5 -44.5t-47.5 -122.5z" />
    <glyph glyph-name="uni1EBC" unicode="&#x1ebc;" horiz-adv-x="645" 
d="M445 774q-35 0 -101 26q-64 27 -92 27q-45 0 -53 -41h-68q7 52 38.5 79.5t77.5 27.5q39 0 100 -27q64 -26 91 -26q46 0 55 41h68q-9 -53 -39.5 -80t-76.5 -27zM106 0v714h482v-81h-390v-231h323v-81h-323v-240h391v-81h-483z" />
    <glyph glyph-name="uni1EBD" unicode="&#x1ebd;" horiz-adv-x="602" 
d="M410 602q-38 0 -102 27t-92 27q-44 0 -53 -42h-68q8 52 39 79.5t77 27.5q38 0 101 -27q64 -26 90 -26q44 0 55 41h68q-9 -52 -39 -79.5t-76 -27.5zM316 -15q-121 0 -193 77q-71 77 -71 207q0 132 70 211t190 79q110 0 173 -75q64 -73 64 -200q0 -16 -2 -38h-401
q2 -84 48.5 -133.5t124.5 -49.5q105 0 154 93l75 -35q-32 -64 -93.5 -100t-138.5 -36zM146 316h312q0 79 -40 123t-112 44q-70 0 -112.5 -44.5t-47.5 -122.5z" />
    <glyph glyph-name="uni1EBE" unicode="&#x1ebe;" horiz-adv-x="645" 
d="M418 917l59 88h73l-70 -88h-62zM169 774l136 144h78l136 -144h-86l-89 95l-90 -95h-85zM106 0v714h482v-81h-390v-231h323v-81h-323v-240h391v-81h-483z" />
    <glyph glyph-name="uni1EBF" unicode="&#x1ebf;" horiz-adv-x="602" 
d="M382 745l59 88h74l-71 -88h-62zM133 602l137 145h77l136 -145h-86l-89 95l-90 -95h-85zM316 -15q-121 0 -193 77q-71 77 -71 207q0 132 70 211t190 79q110 0 173 -75q64 -73 64 -200q0 -16 -2 -38h-401q2 -84 48.5 -133.5t124.5 -49.5q105 0 154 93l75 -35
q-32 -64 -93.5 -100t-138.5 -36zM146 316h312q0 79 -40 123t-112 44q-70 0 -112.5 -44.5t-47.5 -122.5z" />
    <glyph glyph-name="uni1EC0" unicode="&#x1ec0;" horiz-adv-x="645" 
d="M354 1007h74l58 -88h-61zM169 774l136 144h78l136 -144h-86l-89 95l-90 -95h-85zM106 0v714h482v-81h-390v-231h323v-81h-323v-240h391v-81h-483z" />
    <glyph glyph-name="uni1EC1" unicode="&#x1ec1;" horiz-adv-x="602" 
d="M318 835h74l59 -88h-62zM133 602l137 145h77l136 -145h-86l-89 95l-90 -95h-85zM316 -15q-121 0 -193 77q-71 77 -71 207q0 132 70 211t190 79q110 0 173 -75q64 -73 64 -200q0 -16 -2 -38h-401q2 -84 48.5 -133.5t124.5 -49.5q105 0 154 93l75 -35q-32 -64 -93.5 -100
t-138.5 -36zM146 316h312q0 79 -40 123t-112 44q-70 0 -112.5 -44.5t-47.5 -122.5z" />
    <glyph glyph-name="uni1EC2" unicode="&#x1ec2;" horiz-adv-x="645" 
d="M464 1074q40 0 66.5 -18t26.5 -52q0 -68 -81 -64v-45h-48v60l-2 19q31 -5 53.5 3t22.5 26q0 32 -51 32q-26 0 -48 -13l-16 34q36 18 77 18zM169 774l136 144h78l136 -144h-86l-89 95l-90 -95h-85zM106 0v714h482v-81h-390v-231h323v-81h-323v-240h391v-81h-483z" />
    <glyph glyph-name="uni1EC3" unicode="&#x1ec3;" horiz-adv-x="602" 
d="M428 902q40 0 66.5 -18t26.5 -51q0 -72 -80 -64v-45h-49v59l-1 19q32 -4 53.5 4t21.5 26q0 32 -51 32q-22 0 -48 -14l-16 34q36 18 77 18zM133 602l137 145h77l136 -145h-86l-89 95l-90 -95h-85zM316 -15q-121 0 -193 77q-71 77 -71 207q0 132 70 211t190 79
q110 0 173 -75q64 -73 64 -200q0 -16 -2 -38h-401q2 -84 48.5 -133.5t124.5 -49.5q105 0 154 93l75 -35q-32 -64 -93.5 -100t-138.5 -36zM146 316h312q0 79 -40 123t-112 44q-70 0 -112.5 -44.5t-47.5 -122.5z" />
    <glyph glyph-name="uni1EC4" unicode="&#x1ec4;" horiz-adv-x="645" 
d="M429 949q-29 0 -81 26q-51 27 -74 27q-34 0 -42 -41h-55q6 52 31 79.5t62 27.5q30 0 80 -27q51 -27 73 -27q36 0 44 41h54q-7 -52 -31 -79t-61 -27zM169 774l136 144h78l136 -144h-86l-89 95l-90 -95h-85zM106 0v714h482v-81h-390v-231h323v-81h-323v-240h391v-81h-483z
" />
    <glyph glyph-name="uni1EC5" unicode="&#x1ec5;" horiz-adv-x="602" 
d="M393 777q-29 0 -81 26q-51 27 -74 27q-34 0 -42 -41h-55q6 52 31 79.5t62 27.5q30 0 80 -27q51 -27 73 -27q37 0 44 42h54q-6 -52 -30.5 -79.5t-61.5 -27.5zM133 602l137 145h77l136 -145h-86l-89 95l-90 -95h-85zM316 -15q-121 0 -193 77q-71 77 -71 207q0 132 70 211
t190 79q110 0 173 -75q64 -73 64 -200q0 -16 -2 -38h-401q2 -84 48.5 -133.5t124.5 -49.5q105 0 154 93l75 -35q-32 -64 -93.5 -100t-138.5 -36zM146 316h312q0 79 -40 123t-112 44q-70 0 -112.5 -44.5t-47.5 -122.5z" />
    <glyph glyph-name="uni1EC6" unicode="&#x1ec6;" horiz-adv-x="645" 
d="M169 774l136 144h78l136 -144h-86l-89 95l-90 -95h-85zM106 0v714h482v-81h-390v-231h323v-81h-323v-240h391v-81h-483zM296 -152v107h92v-107h-92z" />
    <glyph glyph-name="uni1EC7" unicode="&#x1ec7;" horiz-adv-x="602" 
d="M133 602l137 145h77l136 -145h-86l-89 95l-90 -95h-85zM316 -15q-121 0 -193 77q-71 77 -71 207q0 132 70 211t190 79q110 0 173 -75q64 -73 64 -200q0 -16 -2 -38h-401q2 -84 48.5 -133.5t124.5 -49.5q105 0 154 93l75 -35q-32 -64 -93.5 -100t-138.5 -36zM146 316h312
q0 79 -40 123t-112 44q-70 0 -112.5 -44.5t-47.5 -122.5zM266 -152v107h91v-107h-91z" />
    <glyph glyph-name="uni1EC8" unicode="&#x1ec8;" horiz-adv-x="305" 
d="M164 974q50 0 81.5 -22t31.5 -63q0 -38 -26 -58.5t-71 -18.5v-54h-60l-1 72v23q38 -5 64 4.5t26 30.5q0 38 -61 38q-31 0 -59 -16l-19 42q40 22 94 22zM106 0v714h92v-714h-92z" />
    <glyph glyph-name="uni1EC9" unicode="&#x1ec9;" horiz-adv-x="292" 
d="M147 796q50 0 81.5 -22t31.5 -63q0 -38 -26.5 -59t-70.5 -19v-53h-60l-1 72v22q37 -5 63.5 5t26.5 31q0 38 -62 38q-30 0 -58 -16l-19 41q40 23 94 23zM254 0h-59q-53 1 -79.5 28.5t-26.5 77.5v437h90v-423q0 -24 8 -32.5t32 -8.5h35v-79z" />
    <glyph glyph-name="uni1ECA" unicode="&#x1eca;" horiz-adv-x="305" 
d="M106 0v714h92v-714h-92zM106 -153v107h92v-107h-92z" />
    <glyph glyph-name="uni1ECB" unicode="&#x1ecb;" horiz-adv-x="297" 
d="M87 639v106h92v-106h-92zM265 0h-70q-53 1 -79.5 28.5t-26.5 77.5v437h90v-423q0 -24 8 -32.5t32 -8.5h46v-79zM107 -152v107h92v-107h-92z" />
    <glyph glyph-name="uni1ECC" unicode="&#x1ecc;" horiz-adv-x="794" 
d="M397 -14q-159 0 -249 107q-89 107 -89 265t91 264q92 107 247 107t247 -107t92 -264q0 -158 -90 -265q-89 -107 -249 -107zM397 68q112 0 178 79q67 79 67 211q0 131 -67 210q-67 81 -178 81q-109 0 -177 -81q-67 -79 -67 -210q0 -132 66 -211q67 -79 178 -79zM355 -152
v107h92v-107h-92z" />
    <glyph glyph-name="uni1ECD" unicode="&#x1ecd;" horiz-adv-x="619" 
d="M309 -15q-123 0 -191 83q-66 84 -66 204q0 119 66 203q68 84 191 84q64 0 114.5 -24t81 -64.5t46.5 -91.5t16 -107q0 -121 -67 -204q-66 -83 -191 -83zM309 63q75 0 120.5 57.5t45.5 151.5t-45 151.5t-120 57.5t-120.5 -58t-45.5 -152t45 -151t120 -57zM268 -152v107h92
v-107h-92z" />
    <glyph glyph-name="uni1ECE" unicode="&#x1ece;" horiz-adv-x="794" 
d="M408 972q50 0 81.5 -22t31.5 -63q0 -38 -26 -58.5t-71 -18.5v-54h-60l-1 72v23q37 -5 63.5 4.5t26.5 30.5q0 39 -61 39q-27 0 -59 -17l-19 42q40 22 94 22zM397 -14q-159 0 -249 107q-89 107 -89 265t91 264q92 107 247 107t247 -107t92 -264q0 -158 -90 -265
q-89 -107 -249 -107zM397 68q112 0 178 79q67 79 67 211q0 131 -67 210q-67 81 -178 81q-109 0 -177 -81q-67 -79 -67 -210q0 -132 66 -211q67 -79 178 -79z" />
    <glyph glyph-name="uni1ECF" unicode="&#x1ecf;" horiz-adv-x="619" 
d="M322 800q50 0 81.5 -22t31.5 -63q0 -38 -26 -58.5t-71 -18.5v-54h-60l-1 72v23q37 -5 63.5 4.5t26.5 30.5q0 38 -62 38q-30 0 -58 -16l-19 42q40 22 94 22zM309 -15q-123 0 -191 83q-66 84 -66 204q0 119 66 203q68 84 191 84q64 0 114.5 -24t81 -64.5t46.5 -91.5
t16 -107q0 -121 -67 -204q-66 -83 -191 -83zM309 63q75 0 120.5 57.5t45.5 151.5t-45 151.5t-120 57.5t-120.5 -58t-45.5 -152t45 -151t120 -57z" />
    <glyph glyph-name="uni1ED0" unicode="&#x1ed0;" horiz-adv-x="794" 
d="M470 919l59 88h74l-71 -88h-62zM221 776l137 144h77l136 -144h-86l-89 95l-90 -95h-85zM397 -14q-159 0 -249 107q-89 107 -89 265t91 264q92 107 247 107t247 -107t92 -264q0 -158 -90 -265q-89 -107 -249 -107zM397 68q112 0 178 79q67 79 67 211q0 131 -67 210
q-67 81 -178 81q-109 0 -177 -81q-67 -79 -67 -210q0 -132 66 -211q67 -79 178 -79z" />
    <glyph glyph-name="uni1ED1" unicode="&#x1ed1;" horiz-adv-x="619" 
d="M384 747l58 88h74l-70 -88h-62zM134 604l137 144h78l136 -144h-86l-89 95l-91 -95h-85zM309 -15q-123 0 -191 83q-66 84 -66 204q0 119 66 203q68 84 191 84q64 0 114.5 -24t81 -64.5t46.5 -91.5t16 -107q0 -121 -67 -204q-66 -83 -191 -83zM309 63q75 0 120.5 57.5
t45.5 151.5t-45 151.5t-120 57.5t-120.5 -58t-45.5 -152t45 -151t120 -57z" />
    <glyph glyph-name="uni1ED2" unicode="&#x1ed2;" horiz-adv-x="794" 
d="M406 1009h74l59 -88h-62zM221 776l137 144h77l136 -144h-86l-89 95l-90 -95h-85zM397 -14q-159 0 -249 107q-89 107 -89 265t91 264q92 107 247 107t247 -107t92 -264q0 -158 -90 -265q-89 -107 -249 -107zM397 68q112 0 178 79q67 79 67 211q0 131 -67 210
q-67 81 -178 81q-109 0 -177 -81q-67 -79 -67 -210q0 -132 66 -211q67 -79 178 -79z" />
    <glyph glyph-name="uni1ED3" unicode="&#x1ed3;" horiz-adv-x="619" 
d="M320 837h74l58 -88h-62zM134 604l137 144h78l136 -144h-86l-89 95l-91 -95h-85zM309 -15q-123 0 -191 83q-66 84 -66 204q0 119 66 203q68 84 191 84q64 0 114.5 -24t81 -64.5t46.5 -91.5t16 -107q0 -121 -67 -204q-66 -83 -191 -83zM309 63q75 0 120.5 57.5t45.5 151.5
t-45 151.5t-120 57.5t-120.5 -58t-45.5 -152t45 -151t120 -57z" />
    <glyph glyph-name="uni1ED4" unicode="&#x1ed4;" horiz-adv-x="794" 
d="M516 1076q40 0 66.5 -18t26.5 -52q0 -69 -80 -64v-45h-49v60l-1 19q30 -5 52.5 3t22.5 26q0 32 -51 32q-25 0 -48 -13l-16 34q36 18 77 18zM221 776l137 144h77l136 -144h-86l-89 95l-90 -95h-85zM397 -14q-159 0 -249 107q-89 107 -89 265t91 264q92 107 247 107
t247 -107t92 -264q0 -158 -90 -265q-89 -107 -249 -107zM397 68q112 0 178 79q67 79 67 211q0 131 -67 210q-67 81 -178 81q-109 0 -177 -81q-67 -79 -67 -210q0 -132 66 -211q67 -79 178 -79z" />
    <glyph glyph-name="uni1ED5" unicode="&#x1ed5;" horiz-adv-x="619" 
d="M429 904q41 0 67.5 -18t26.5 -52q0 -68 -81 -64v-45h-48l-1 60l-1 18q32 -4 53.5 4t21.5 26q0 32 -50 32q-26 0 -49 -13l-16 33q35 19 77 19zM134 604l137 144h78l136 -144h-86l-89 95l-91 -95h-85zM309 -15q-123 0 -191 83q-66 84 -66 204q0 119 66 203q68 84 191 84
q64 0 114.5 -24t81 -64.5t46.5 -91.5t16 -107q0 -121 -67 -204q-66 -83 -191 -83zM309 63q75 0 120.5 57.5t45.5 151.5t-45 151.5t-120 57.5t-120.5 -58t-45.5 -152t45 -151t120 -57z" />
    <glyph glyph-name="uni1ED6" unicode="&#x1ed6;" horiz-adv-x="794" 
d="M481 951q-29 0 -81 26q-51 27 -74 27q-34 0 -42 -41h-55q6 52 31 79.5t62 27.5q30 0 80 -27q51 -27 73 -27q36 0 44 41h54q-7 -52 -31 -79t-61 -27zM221 776l137 144h77l136 -144h-86l-89 95l-90 -95h-85zM397 -14q-159 0 -249 107q-89 107 -89 265t91 264
q92 107 247 107t247 -107t92 -264q0 -158 -90 -265q-89 -107 -249 -107zM397 68q112 0 178 79q67 79 67 211q0 131 -67 210q-67 81 -178 81q-109 0 -177 -81q-67 -79 -67 -210q0 -132 66 -211q67 -79 178 -79z" />
    <glyph glyph-name="uni1ED7" unicode="&#x1ed7;" horiz-adv-x="619" 
d="M394 779q-29 0 -81 26q-51 27 -73 27q-35 0 -43 -41h-54q6 52 30.5 79t62.5 27q30 0 80 -27q50 -26 72 -26q37 0 45 41h54q-7 -52 -31 -79t-62 -27zM134 604l137 144h78l136 -144h-86l-89 95l-91 -95h-85zM309 -15q-123 0 -191 83q-66 84 -66 204q0 119 66 203
q68 84 191 84q64 0 114.5 -24t81 -64.5t46.5 -91.5t16 -107q0 -121 -67 -204q-66 -83 -191 -83zM309 63q75 0 120.5 57.5t45.5 151.5t-45 151.5t-120 57.5t-120.5 -58t-45.5 -152t45 -151t120 -57z" />
    <glyph glyph-name="uni1ED8" unicode="&#x1ed8;" horiz-adv-x="794" 
d="M221 776l137 144h77l136 -144h-86l-89 95l-90 -95h-85zM397 -14q-159 0 -249 107q-89 107 -89 265t91 264q92 107 247 107t247 -107t92 -264q0 -158 -90 -265q-89 -107 -249 -107zM397 68q112 0 178 79q67 79 67 211q0 131 -67 210q-67 81 -178 81q-109 0 -177 -81
q-67 -79 -67 -210q0 -132 66 -211q67 -79 178 -79zM355 -152v107h92v-107h-92z" />
    <glyph glyph-name="uni1ED9" unicode="&#x1ed9;" horiz-adv-x="619" 
d="M134 604l137 144h78l136 -144h-86l-89 95l-91 -95h-85zM309 -15q-123 0 -191 83q-66 84 -66 204q0 119 66 203q68 84 191 84q64 0 114.5 -24t81 -64.5t46.5 -91.5t16 -107q0 -121 -67 -204q-66 -83 -191 -83zM309 63q75 0 120.5 57.5t45.5 151.5t-45 151.5t-120 57.5
t-120.5 -58t-45.5 -152t45 -151t120 -57zM268 -152v107h92v-107h-92z" />
    <glyph glyph-name="uni1EDA" unicode="&#x1eda;" horiz-adv-x="795" 
d="M446 914h93l-109 -137h-74zM610 655q60 -50 93 -128t33 -169q0 -158 -90 -265q-89 -107 -249 -107q-159 0 -249 107q-89 107 -89 265t91 264q92 107 247 107q73 0 133 -25h31q58 0 58 39q0 23 -16 45l58 19q22 -40 22 -66q0 -71 -73 -86zM397 68q112 0 178 79
q67 79 67 211q0 131 -67 210q-67 81 -178 81q-109 0 -177 -81q-67 -79 -67 -210q0 -132 66 -211q67 -79 178 -79z" />
    <glyph glyph-name="uni1EDB" unicode="&#x1edb;" horiz-adv-x="631" 
d="M366 747h92l-108 -137h-75zM497 479q70 -79 70 -207q0 -121 -67 -204q-66 -83 -191 -83q-123 0 -191 83q-66 84 -66 204q0 119 66 203q68 84 191 84q75 0 128 -31h6q58 0 58 38q0 23 -16 45l58 20q22 -41 22 -67q0 -68 -68 -85zM309 63q75 0 120.5 57.5t45.5 151.5
t-45 151.5t-120 57.5t-120.5 -58t-45.5 -152t45 -151t120 -57z" />
    <glyph glyph-name="uni1EDC" unicode="&#x1edc;" horiz-adv-x="795" 
d="M348 910l88 -136h-74l-106 136h92zM610 655q60 -50 93 -128t33 -169q0 -158 -90 -265q-89 -107 -249 -107q-159 0 -249 107q-89 107 -89 265t91 264q92 107 247 107q73 0 133 -25h31q58 0 58 39q0 23 -16 45l58 19q22 -40 22 -66q0 -71 -73 -86zM397 68q112 0 178 79
q67 79 67 211q0 131 -67 210q-67 81 -178 81q-109 0 -177 -81q-67 -79 -67 -210q0 -132 66 -211q67 -79 178 -79z" />
    <glyph glyph-name="uni1EDD" unicode="&#x1edd;" horiz-adv-x="631" 
d="M268 744l87 -137h-74l-106 137h93zM497 479q70 -79 70 -207q0 -121 -67 -204q-66 -83 -191 -83q-123 0 -191 83q-66 84 -66 204q0 119 66 203q68 84 191 84q75 0 128 -31h6q58 0 58 38q0 23 -16 45l58 20q22 -41 22 -67q0 -68 -68 -85zM309 63q75 0 120.5 57.5
t45.5 151.5t-45 151.5t-120 57.5t-120.5 -58t-45.5 -152t45 -151t120 -57z" />
    <glyph glyph-name="uni1EDE" unicode="&#x1ede;" horiz-adv-x="795" 
d="M393 925q-26 0 -58 -17l-20 42q41 22 94 22q50 0 82 -22t32 -63q0 -38 -26 -58.5t-71 -18.5v-54h-60l-2 72v23q37 -5 63.5 4.5t26.5 30.5q0 39 -61 39zM610 655q60 -50 93 -128t33 -169q0 -158 -90 -265q-89 -107 -249 -107q-159 0 -249 107q-89 107 -89 265t91 264
q92 107 247 107q73 0 133 -25h31q58 0 58 39q0 23 -16 45l58 19q22 -40 22 -66q0 -71 -73 -86zM397 68q112 0 178 79q67 79 67 211q0 131 -67 210q-67 81 -178 81q-109 0 -177 -81q-67 -79 -67 -210q0 -132 66 -211q67 -79 178 -79z" />
    <glyph glyph-name="uni1EDF" unicode="&#x1edf;" horiz-adv-x="631" 
d="M312 758q-30 0 -58 -16l-19 41q40 23 94 23q50 0 81.5 -22t31.5 -63q0 -38 -26.5 -59t-70.5 -19v-53h-60l-1 72v22q37 -5 63.5 5t26.5 31q0 38 -62 38zM497 479q70 -79 70 -207q0 -121 -67 -204q-66 -83 -191 -83q-123 0 -191 83q-66 84 -66 204q0 119 66 203
q68 84 191 84q75 0 128 -31h6q58 0 58 38q0 23 -16 45l58 20q22 -41 22 -67q0 -68 -68 -85zM309 63q75 0 120.5 57.5t45.5 151.5t-45 151.5t-120 57.5t-120.5 -58t-45.5 -152t45 -151t120 -57z" />
    <glyph glyph-name="uni1EE0" unicode="&#x1ee0;" horiz-adv-x="795" 
d="M305 829q-42 0 -53 -41h-68q8 52 39 79.5t78 27.5q39 0 100 -27q64 -26 90 -26q47 0 55 41h68q-8 -52 -38 -79.5t-77 -27.5q-35 0 -101 26q-64 27 -93 27zM610 655q60 -50 93 -128t33 -169q0 -158 -90 -265q-89 -107 -249 -107q-159 0 -249 107q-89 107 -89 265t91 264
q92 107 247 107q73 0 133 -25h31q58 0 58 39q0 23 -16 45l58 19q22 -40 22 -66q0 -71 -73 -86zM397 68q112 0 178 79q67 79 67 211q0 131 -67 210q-67 81 -178 81q-109 0 -177 -81q-67 -79 -67 -210q0 -132 66 -211q67 -79 178 -79z" />
    <glyph glyph-name="uni1EE1" unicode="&#x1ee1;" horiz-adv-x="631" 
d="M225 663q-44 0 -53 -41h-68q7 52 38 79t78 27q38 0 100 -27q64 -26 91 -26q44 0 55 41h68q-9 -52 -39.5 -79t-76.5 -27q-35 0 -101 26q-64 27 -92 27zM497 479q70 -79 70 -207q0 -121 -67 -204q-66 -83 -191 -83q-123 0 -191 83q-66 84 -66 204q0 119 66 203
q68 84 191 84q75 0 128 -31h6q58 0 58 38q0 23 -16 45l58 20q22 -41 22 -67q0 -68 -68 -85zM309 63q75 0 120.5 57.5t45.5 151.5t-45 151.5t-120 57.5t-120.5 -58t-45.5 -152t45 -151t120 -57z" />
    <glyph glyph-name="uni1EE2" unicode="&#x1ee2;" horiz-adv-x="795" 
d="M610 655q60 -50 93 -128t33 -169q0 -158 -90 -265q-89 -107 -249 -107q-159 0 -249 107q-89 107 -89 265t91 264q92 107 247 107q73 0 133 -25h31q58 0 58 39q0 23 -16 45l58 19q22 -40 22 -66q0 -71 -73 -86zM397 68q112 0 178 79q67 79 67 211q0 131 -67 210
q-67 81 -178 81q-109 0 -177 -81q-67 -79 -67 -210q0 -132 66 -211q67 -79 178 -79zM451 -159h-92v107h92v-107z" />
    <glyph glyph-name="uni1EE3" unicode="&#x1ee3;" horiz-adv-x="631" 
d="M497 479q70 -79 70 -207q0 -121 -67 -204q-66 -83 -191 -83q-123 0 -191 83q-66 84 -66 204q0 119 66 203q68 84 191 84q75 0 128 -31h6q58 0 58 38q0 23 -16 45l58 20q22 -41 22 -67q0 -68 -68 -85zM309 63q75 0 120.5 57.5t45.5 151.5t-45 151.5t-120 57.5t-120.5 -58
t-45.5 -152t45 -151t120 -57zM368 -162h-92v107h92v-107z" />
    <glyph glyph-name="uni1EE4" unicode="&#x1ee4;" horiz-adv-x="745" 
d="M373 -15q-135 0 -205 73t-70 211v445h91v-439q0 -100 48 -153t137 -53q93 0 137 50.5t44 155.5v439h92v-445q0 -140 -70 -212t-204 -72zM332 -152v107h92v-107h-92z" />
    <glyph glyph-name="uni1EE5" unicode="&#x1ee5;" horiz-adv-x="620" 
d="M278 -15q-195 0 -195 231v327h89v-312q0 -86 30 -125t101 -39q68 0 102.5 42.5t34.5 121.5v312h90v-543h-81v90q-45 -105 -171 -105zM271 -151v107h91v-107h-91z" />
    <glyph glyph-name="uni1EE6" unicode="&#x1ee6;" horiz-adv-x="745" 
d="M385 972q50 0 81.5 -22t31.5 -63q0 -38 -26 -58.5t-71 -18.5v-54h-60l-1 72v23q37 -5 63.5 4.5t26.5 30.5q0 39 -61 39q-27 0 -59 -17l-19 42q40 22 94 22zM373 -15q-135 0 -205 73t-70 211v445h91v-439q0 -100 48 -153t137 -53q93 0 137 50.5t44 155.5v439h92v-445
q0 -140 -70 -212t-204 -72z" />
    <glyph glyph-name="uni1EE7" unicode="&#x1ee7;" horiz-adv-x="620" 
d="M318 786q50 0 82 -22t32 -63q0 -38 -26 -58.5t-71 -18.5v-54h-60l-1 72v23q37 -5 63 4.5t26 30.5q0 38 -61 38q-30 0 -58 -16l-20 42q41 22 94 22zM278 -15q-195 0 -195 231v327h89v-312q0 -86 30 -125t101 -39q68 0 102.5 42.5t34.5 121.5v312h90v-543h-81v90
q-45 -105 -171 -105z" />
    <glyph glyph-name="uni1EE8" unicode="&#x1ee8;" horiz-adv-x="766" 
d="M430 899h93l-109 -137h-75zM700 798l58 19q22 -40 22 -66q0 -43 -28 -66.5t-82 -23.5h-23v-392q0 -140 -70 -212t-204 -72q-135 0 -205 73t-70 211v445h91v-439q0 -100 48 -153t137 -53q93 0 137 50.5t44 155.5v439h103q58 0 58 38q0 24 -16 46z" />
    <glyph glyph-name="uni1EE9" unicode="&#x1ee9;" horiz-adv-x="647" 
d="M361 729h92l-108 -137h-75zM583 627l58 19q22 -40 22 -67q0 -89 -110 -89h-23v-490h-81v90q-45 -105 -171 -105q-195 0 -195 231v327h89v-312q0 -86 30 -125t101 -39q68 0 102.5 42.5t34.5 121.5v312h101q58 0 58 38q0 21 -16 46z" />
    <glyph glyph-name="uni1EEA" unicode="&#x1eea;" horiz-adv-x="766" 
d="M332 895l87 -136h-74l-106 136h93zM700 798l58 19q22 -40 22 -66q0 -43 -28 -66.5t-82 -23.5h-23v-392q0 -140 -70 -212t-204 -72q-135 0 -205 73t-70 211v445h91v-439q0 -100 48 -153t137 -53q93 0 137 50.5t44 155.5v439h103q58 0 58 38q0 24 -16 46z" />
    <glyph glyph-name="uni1EEB" unicode="&#x1eeb;" horiz-adv-x="647" 
d="M263 725l87 -136h-74l-106 136h93zM583 627l58 19q22 -40 22 -67q0 -89 -110 -89h-23v-490h-81v90q-45 -105 -171 -105q-195 0 -195 231v327h89v-312q0 -86 30 -125t101 -39q68 0 102.5 42.5t34.5 121.5v312h101q58 0 58 38q0 21 -16 46z" />
    <glyph glyph-name="uni1EEC" unicode="&#x1eec;" horiz-adv-x="766" 
d="M377 910q-27 0 -59 -17l-19 42q40 22 94 22q50 0 81.5 -22t31.5 -63q0 -38 -26 -58.5t-71 -18.5v-54h-60l-1 72v23q37 -5 63.5 4.5t26.5 30.5q0 39 -61 39zM700 798l58 19q22 -40 22 -66q0 -43 -28 -66.5t-82 -23.5h-23v-392q0 -140 -70 -212t-204 -72q-135 0 -205 73
t-70 211v445h91v-439q0 -100 48 -153t137 -53q93 0 137 50.5t44 155.5v439h103q58 0 58 38q0 24 -16 46z" />
    <glyph glyph-name="uni1EED" unicode="&#x1eed;" horiz-adv-x="647" 
d="M307 740q-26 0 -58 -17l-19 42q40 22 94 22q50 0 81.5 -22t31.5 -63q0 -38 -26 -58.5t-71 -18.5v-54h-60l-1 72v23q37 -5 63.5 4.5t26.5 30.5q0 39 -62 39zM583 627l58 19q22 -40 22 -67q0 -89 -110 -89h-23v-490h-81v90q-45 -105 -171 -105q-195 0 -195 231v327h89v-312
q0 -86 30 -125t101 -39q68 0 102.5 42.5t34.5 121.5v312h101q58 0 58 38q0 21 -16 46z" />
    <glyph glyph-name="uni1EEE" unicode="&#x1eee;" horiz-adv-x="766" 
d="M289 814q-45 0 -53 -41h-68q8 52 39 79.5t77 27.5q38 0 101 -27q64 -26 90 -26q46 0 55 41h68q-9 -52 -39 -79.5t-76 -27.5q-35 0 -101 26q-64 27 -93 27zM700 798l58 19q22 -40 22 -66q0 -43 -28 -66.5t-82 -23.5h-23v-392q0 -140 -70 -212t-204 -72q-135 0 -205 73
t-70 211v445h91v-439q0 -100 48 -153t137 -53q93 0 137 50.5t44 155.5v439h103q58 0 58 38q0 24 -16 46z" />
    <glyph glyph-name="uni1EEF" unicode="&#x1eef;" horiz-adv-x="647" 
d="M220 644q-45 0 -53 -41h-68q7 52 38.5 79.5t77.5 27.5q38 0 100 -27q64 -26 91 -26q46 0 55 41h68q-9 -53 -39.5 -80t-76.5 -27q-35 0 -101 26q-65 27 -92 27zM583 627l58 19q22 -40 22 -67q0 -89 -110 -89h-23v-490h-81v90q-45 -105 -171 -105q-195 0 -195 231v327h89
v-312q0 -86 30 -125t101 -39q68 0 102.5 42.5t34.5 121.5v312h101q58 0 58 38q0 21 -16 46z" />
    <glyph glyph-name="uni1EF0" unicode="&#x1ef0;" horiz-adv-x="766" 
d="M700 798l58 19q22 -40 22 -66q0 -43 -28 -66.5t-82 -23.5h-23v-392q0 -140 -70 -212t-204 -72q-135 0 -205 73t-70 211v445h91v-439q0 -100 48 -153t137 -53q93 0 137 50.5t44 155.5v439h103q58 0 58 38q0 24 -16 46zM426 -157h-92v107h92v-107z" />
    <glyph glyph-name="uni1EF1" unicode="&#x1ef1;" horiz-adv-x="647" 
d="M583 627l58 19q22 -40 22 -67q0 -89 -110 -89h-23v-490h-81v90q-45 -105 -171 -105q-195 0 -195 231v327h89v-312q0 -86 30 -125t101 -39q68 0 102.5 42.5t34.5 121.5v312h101q58 0 58 38q0 21 -16 46zM358 -152h-91v107h91v-107z" />
    <glyph glyph-name="Ygrave" unicode="&#x1ef2;" horiz-adv-x="667" 
d="M298 766l-106 137h92l87 -137h-73zM288 0v253l-257 461h107l195 -371l196 371h106l-255 -461v-253h-92z" />
    <glyph glyph-name="ygrave" unicode="&#x1ef3;" horiz-adv-x="565" 
d="M253 589l-106 136h93l87 -136h-74zM161 -196h-117v80h98q24 0 40.5 15t32.5 51l25 58l-212 535h98l159 -436l161 436h96l-249 -634q-23 -57 -53.5 -81t-78.5 -24z" />
    <glyph glyph-name="uni1EF4" unicode="&#x1ef4;" horiz-adv-x="667" 
d="M288 0v253l-257 461h107l195 -371l196 371h106l-255 -461v-253h-92zM287 -152v107h92v-107h-92z" />
    <glyph glyph-name="uni1EF5" unicode="&#x1ef5;" horiz-adv-x="565" 
d="M161 -196h-117v80h98q24 0 40.5 15t32.5 51l25 58l-212 535h98l159 -436l161 436h96l-249 -634q-23 -57 -53.5 -81t-78.5 -24zM240 -312v107h92v-107h-92z" />
    <glyph glyph-name="uni1EF6" unicode="&#x1ef6;" horiz-adv-x="667" 
d="M345 965q50 0 81.5 -22t31.5 -63q0 -39 -26 -59.5t-71 -18.5v-53h-59l-2 72v22q38 -5 64 5t26 31q0 38 -61 38q-30 0 -58 -16l-20 41q44 23 94 23zM288 0v253l-257 461h107l195 -371l196 371h106l-255 -461v-253h-92z" />
    <glyph glyph-name="uni1EF7" unicode="&#x1ef7;" horiz-adv-x="565" 
d="M301 787q50 0 81.5 -22t31.5 -63q0 -38 -26 -58.5t-71 -18.5v-54h-60l-1 72v23q37 -5 63.5 4.5t26.5 30.5q0 39 -61 39q-27 0 -59 -17l-19 42q40 22 94 22zM161 -196h-117v80h98q24 0 40.5 15t32.5 51l25 58l-212 535h98l159 -436l161 436h96l-249 -634
q-23 -57 -53.5 -81t-78.5 -24z" />
    <glyph glyph-name="uni1EF8" unicode="&#x1ef8;" horiz-adv-x="667" 
d="M435 769q-35 0 -101 26q-64 27 -93 27q-42 0 -53 -41h-68q8 52 39 79t78 27q38 0 100 -27q64 -26 90 -26q47 0 55 41h68q-8 -52 -38.5 -79t-76.5 -27zM288 0v253l-257 461h107l195 -371l196 371h106l-255 -461v-253h-92z" />
    <glyph glyph-name="uni1EF9" unicode="&#x1ef9;" horiz-adv-x="565" 
d="M390 591q-35 0 -101 26q-65 27 -92 27q-45 0 -53 -41h-68q7 52 38.5 79.5t77.5 27.5q38 0 100 -27q63 -27 91 -27q46 0 55 42h68q-9 -53 -39.5 -80t-76.5 -27zM161 -196h-117v80h98q24 0 40.5 15t32.5 51l25 58l-212 535h98l159 -436l161 436h96l-249 -634
q-23 -57 -53.5 -81t-78.5 -24z" />
    <glyph glyph-name="endash" unicode="&#x2013;" horiz-adv-x="600" 
d="M78 235v83h444v-83h-444z" />
    <glyph glyph-name="emdash" unicode="&#x2014;" horiz-adv-x="1040" 
d="M76 231v85h888v-85h-888z" />
    <glyph glyph-name="quoteleft" unicode="&#x2018;" horiz-adv-x="241" 
d="M186 714l-40 -237h-89l75 237h54z" />
    <glyph glyph-name="quoteright" unicode="&#x2019;" horiz-adv-x="234" 
d="M64 477l40 237h89l-75 -237h-54z" />
    <glyph glyph-name="quotesinglbase" unicode="&#x201a;" horiz-adv-x="247" 
d="M47 -122l40 237h89l-75 -237h-54z" />
    <glyph glyph-name="quotedblleft" unicode="&#x201c;" horiz-adv-x="417" 
d="M186 714l-40 -236h-89l75 236h54zM362 714l-40 -236h-89l75 236h54z" />
    <glyph glyph-name="quotedblright" unicode="&#x201d;" horiz-adv-x="412" 
d="M64 476l40 237h89l-75 -237h-54zM242 476l40 237h89l-75 -237h-54z" />
    <glyph glyph-name="quotedblbase" unicode="&#x201e;" horiz-adv-x="410" 
d="M43 -130l39 237h90l-75 -237h-54zM219 -130l40 237h89l-75 -237h-54z" />
    <glyph glyph-name="dagger" unicode="&#x2020;" horiz-adv-x="381" 
d="M225 621h104v-70h-104v-213h-70v213h-103v71h103v113h70v-114z" />
    <glyph glyph-name="daggerdbl" unicode="&#x2021;" horiz-adv-x="404" 
d="M340 621v-70h-104v-96h104v-70h-104v-213h-69v213h-103v71h103v95h-103v71h103v113h69v-114h104z" />
    <glyph glyph-name="bullet" unicode="&#x2022;" horiz-adv-x="408" 
d="M92 354q0 48 31 79.5t81 31.5t80.5 -31t30.5 -80q0 -50 -30.5 -81.5t-79.5 -31.5t-81 32t-32 81z" />
    <glyph glyph-name="ellipsis" unicode="&#x2026;" horiz-adv-x="797" 
d="M74 0v104h96v-104h-96zM355 0v104h97v-104h-97zM627 0v104h97v-104h-97z" />
    <glyph glyph-name="perthousand" unicode="&#x2030;" horiz-adv-x="1194" 
d="M194 299q-74 0 -113.5 56t-39.5 152q0 97 39.5 153t113.5 56q76 0 115.5 -56t39.5 -153q0 -96 -40 -152t-115 -56zM198 -11l396 726h57l-395 -726h-58zM194 349q50 0 76 42t26 117q0 158 -102 158q-100 0 -100 -158q0 -74 26 -116.5t74 -42.5zM642 -11q-74 0 -113.5 56
t-39.5 152q0 97 39.5 153t113.5 56t114 -56t40 -153q0 -96 -40 -152t-114 -56zM1000 -11q-74 0 -113.5 56t-39.5 152q0 97 39.5 153t113.5 56q76 0 115 -55.5t39 -153.5q0 -96 -40 -152t-114 -56zM743 198q0 158 -101 158t-101 -158q0 -75 25.5 -117t75.5 -42t75.5 42
t25.5 117zM1000 39q50 0 75.5 42t25.5 117q0 158 -101 158q-100 0 -100 -158q0 -74 26 -116.5t74 -42.5z" />
    <glyph glyph-name="guilsinglleft" unicode="&#x2039;" horiz-adv-x="304" 
d="M162 99l-115 169l115 170h70l-106 -170l106 -169h-70z" />
    <glyph glyph-name="guilsinglright" unicode="&#x203a;" horiz-adv-x="304" 
d="M142 438l115 -170l-115 -169h-70l105 169l-105 170h70z" />
    <glyph glyph-name="fraction" unicode="&#x2044;" horiz-adv-x="138" 
d="M-158 -10l396 726h57l-395 -726h-58z" />
    <glyph glyph-name="lira" unicode="&#x20a4;" horiz-adv-x="741" 
d="M174 0v312l-124 -44v58l124 45v79l-124 -44v59l124 44v199h97v-164l245 89v-59l-245 -89v-80l245 89v-58l-245 -89v-257h60q261 0 273 248h100q-5 -162 -100.5 -250t-276.5 -88h-153z" />
    <glyph glyph-name="Euro" unicode="&#x20ac;" horiz-adv-x="733" 
d="M660 144l16 -89q-80 -71 -218 -71q-126 0 -212 74q-85 74 -106 200h-107l16 54h83q-3 21 -1 82h-69l15 54h61q30 136 114 209.5t210 73.5q134 0 220 -78l-55 -64q-61 56 -164 55q-90 -1 -149 -51t-78 -145h257l-15 -54h-248q-4 -43 1 -82h232l-15 -54h-209
q16 -87 76.5 -137.5t150.5 -50.5q123 0 194 74z" />
    <glyph glyph-name="uni20BA" unicode="&#x20ba;" horiz-adv-x="741" 
d="M174 0v312l-124 -44v58l124 45v79l-124 -44v59l124 44v199h97v-164l245 89v-59l-245 -89v-80l245 89v-58l-245 -89v-257h60q261 0 273 248h100q-5 -162 -100.5 -250t-276.5 -88h-153z" />
    <glyph glyph-name="uni20BD" unicode="&#x20bd;" horiz-adv-x="672" 
d="M416 295h-210v-76h283v-74h-283v-145h-84v145h-60v74h60v77h-60v74h60v349h275q109 0 173 -55.5t64 -153.5q0 -92 -60 -153q-60 -62 -158 -62zM206 644v-274h189q69 0 114 36t45 100q0 67 -44.5 102.5t-117.5 35.5h-186z" />
    <glyph glyph-name="uni2116" unicode="&#x2116;" horiz-adv-x="1195" 
d="M107 0v714h111l328 -490l54 -85h9l-1 137v438h90v-714h-106l-317 469l-69 105h-10l1 -135v-439h-90zM822 553q0 72 43 116t115 44t115.5 -44t43.5 -116q0 -71 -43 -115t-116 -44t-115.5 44t-42.5 115zM980 455q45 0 70 25.5t25 72.5q0 46 -25.5 72t-69.5 26
q-43 0 -68 -26t-25 -72q0 -47 25 -72.5t68 -25.5zM828 266v52h307v-52h-307z" />
    <glyph glyph-name="uni2117" unicode="&#x2117;" horiz-adv-x="777" 
d="M388 -15q-138 0 -234 97q-95 98 -95 240q0 145 97 239q98 95 233 95t231 -96q97 -94 97 -239q0 -142 -95 -240q-94 -96 -234 -96zM388 35q117 0 195 82q78 83 78 203q0 122 -79 204q-78 83 -196 83q-116 0 -193 -83t-77 -203q0 -121 78 -204q78 -82 194 -82zM268 165v322
h138q57 0 87.5 -24.5t30.5 -72.5q0 -54 -28.5 -78t-91.5 -24h-83v-123h-53zM321 335h90q62 0 62 53t-66 53h-86v-106z" />
    <glyph glyph-name="trademark" unicode="&#x2122;" horiz-adv-x="821" 
d="M138 355v307h-101v54h258v-54h-97v-307h-60zM363 355v359h82l105 -275l98 276h86v-360h-57v285l-102 -284h-49l-106 281v-282h-57z" />
    <glyph glyph-name="uni2126" unicode="&#x2126;" horiz-adv-x="776" 
d="M76 0v76h156q-65 23 -110 86q-46 64 -46 151q0 119 90 201q89 82 224 82q133 0 221 -82q89 -81 89 -204q0 -86 -45 -149q-43 -62 -106 -85h151v-76h-268v73q69 19 121 82q53 65 53 147q0 96 -60 155q-60 60 -157 60q-98 0 -158 -60t-60 -155q0 -82 54 -147
q53 -64 122 -82v-73h-271z" />
    <glyph glyph-name="estimated" unicode="&#x212e;" horiz-adv-x="687" 
d="M125 260v-93q65 -147 232 -147q66 0 127.5 26t97.5 68l16 -25q-43 -44 -109 -71t-136 -27q-129 0 -213 86q-84 87 -84 211q0 125 84 212q85 88 207 88q123 0 208 -88q85 -86 85 -211q0 -22 -1 -29h-514zM349 558q-161 0 -224 -139v-127h448v120q-59 146 -224 146z" />
    <glyph glyph-name="uni2139" unicode="&#x2139;" horiz-adv-x="777" 
d="M388 -15q-138 0 -234 97q-95 98 -95 240q0 145 97 239q98 95 233 95t231 -96q97 -94 97 -239q0 -142 -95 -240q-94 -96 -234 -96zM388 35q117 0 195 82q78 83 78 203q0 122 -79 204q-78 83 -196 83q-116 0 -193 -83t-77 -203q0 -121 78 -204q78 -82 194 -82zM353 462v68
h57v-68h-57zM459 116h-38q-68 0 -68 77v205h56v-196q0 -19 4.5 -25.5t19.5 -6.5h26v-54z" />
    <glyph glyph-name="uni2150" unicode="&#x2150;" horiz-adv-x="780" 
d="M129 -10l396 726h57l-396 -726h-57zM136 310v287h-102v40q104 0 113 72h42v-399h-53zM620 0h-57q0 102 4 130q5 32 27 72q27 47 91 147h-196v50h257l-1 -49l-45 -71q-32 -49 -51 -85q-20 -38 -25 -71q-4 -28 -4 -123z" />
    <glyph glyph-name="uni2151" unicode="&#x2151;" horiz-adv-x="826" 
d="M129 -10l395 726h57l-395 -726h-57zM136 310v287h-102v40q103 0 112 72h43v-399h-53zM634 -11q-50 0 -82.5 23t-41.5 66l49 14q12 -55 76 -55q45 0 67 37.5t26 120.5q-9 -25 -35.5 -40t-62.5 -15q-60 0 -92 34.5t-32 98.5q0 62 35.5 97.5t95.5 35.5q143 0 143 -201
q0 -105 -38 -160.5t-108 -55.5zM638 184q36 0 58 24.5t22 63.5q0 35 -20 61q-19 25 -59 25q-39 0 -60 -24q-20 -23 -20 -61q0 -40 20.5 -64.5t58.5 -24.5z" />
    <glyph glyph-name="uni2152" unicode="&#x2152;" horiz-adv-x="1084" 
d="M129 -10l395 726h57l-395 -726h-57zM136 310v287h-102v40q103 0 112 72h43v-399h-53zM886 -11q-74 0 -113.5 56t-39.5 152q0 97 39.5 153t113.5 56q76 0 115.5 -56t39.5 -153q0 -96 -40 -152t-115 -56zM600 0v287h-103v40q104 0 113 72h42v-399h-52zM886 39q50 0 76 42
t26 117q0 158 -102 158q-100 0 -100 -158q0 -74 26 -116.5t74 -42.5z" />
    <glyph glyph-name="uni2153" unicode="&#x2153;" horiz-adv-x="821" 
d="M129 -10l395 726h57l-395 -726h-57zM136 310v287h-102v40q103 0 112 72h43v-399h-53zM633 -11q-113 0 -135 103l50 13q16 -70 87 -70q39 0 62 23t23 62t-22.5 61t-58.5 22q-27 0 -46 -10l-26 32l120 122h-172v51h238v-48l-101 -104q8 0 25 -5q43 -6 68.5 -38t25.5 -85
q0 -59 -37 -94t-101 -35z" />
    <glyph glyph-name="uni2154" unicode="&#x2154;" horiz-adv-x="922" 
d="M234 -10l396 726h57l-396 -726h-57zM99 587h-50q0 55 36 91t95 36q58 0 93.5 -32t35.5 -85q0 -54 -25 -79q-24 -24 -79 -50q-59 -24 -75 -40t-16 -49v-18h199v-49h-256v68q0 46 25.5 73.5t90.5 54.5q31 14 45 21q38 21 38 68q0 33 -21 52t-56 19t-57.5 -22t-22.5 -59z
M739 -11q-113 0 -135 103l50 13q16 -70 87 -70q39 0 61.5 22.5t22.5 62.5q0 39 -22 61t-58 22q-27 0 -47 -10l-25 32l120 122h-172v51h237v-48l-100 -104q7 0 25 -5q43 -6 68.5 -38t25.5 -85q0 -59 -37 -94t-101 -35z" />
    <glyph glyph-name="uni2155" unicode="&#x2155;" horiz-adv-x="830" 
d="M129 -10l395 726h57l-395 -726h-57zM136 310v287h-102v40q103 0 112 72h43v-399h-53zM639 -13q-98 0 -133 89l47 24q26 -65 87 -65q41 0 64 23.5t23 65.5q0 40 -21 63t-61 23q-44 0 -77 -38l-49 12v212h239v-51h-189l-1 -124q38 36 85 36q60 0 95 -35t35 -98
q0 -64 -38 -100.5t-106 -36.5z" />
    <glyph glyph-name="uni2156" unicode="&#x2156;" horiz-adv-x="932" 
d="M234 -10l396 726h57l-396 -726h-57zM99 587h-50q0 55 36 91t95 36q58 0 93.5 -32t35.5 -85q0 -54 -25 -79q-24 -24 -79 -50q-59 -24 -75 -40t-16 -49v-18h199v-49h-256v68q0 46 25.5 73.5t90.5 54.5q31 14 45 21q38 21 38 68q0 33 -21 52t-56 19t-57.5 -22t-22.5 -59z
M745 -13q-96 0 -134 89l47 24q29 -65 88 -65q40 0 63.5 23.5t23.5 65.5q0 40 -21 63t-61 23q-45 0 -77 -38l-49 12v212h238v-51h-189v-124q38 36 85 36q60 0 95 -35t35 -98q0 -64 -38 -100.5t-106 -36.5z" />
    <glyph glyph-name="uni2157" unicode="&#x2157;" horiz-adv-x="923" 
d="M224 -10l396 726h57l-395 -726h-58zM172 299q-113 0 -134 103l50 13q15 -70 86 -70q39 0 62 23t23 62t-22.5 61t-58.5 22q-26 0 -46 -10l-25 32l119 122h-171v51h237v-48l-101 -104q8 0 25 -5q43 -6 69 -38.5t26 -84.5q0 -59 -37.5 -94t-101.5 -35zM735 -13
q-98 0 -133 89l46 24q29 -65 88 -65q41 0 64 23.5t23 65.5q0 40 -21 63t-61 23q-45 0 -77 -38l-49 12v212h238v-51h-189v-124q38 36 85 36q60 0 95 -35t35 -98q0 -64 -38 -100.5t-106 -36.5z" />
    <glyph glyph-name="uni2158" unicode="&#x2158;" horiz-adv-x="946" 
d="M244 -10l395 726h57l-395 -726h-57zM225 307v81h-192v45l147 274h97v-273h50v-46h-50v-81h-52zM89 434h136v219h-22zM754 -13q-98 0 -133 89l47 24q26 -65 87 -65q41 0 64 23.5t23 65.5q0 40 -21 63t-61 23q-44 0 -77 -38l-49 12v212h239v-51h-189l-1 -124q37 36 85 36
q60 0 95 -35t35 -98q0 -64 -38 -100.5t-106 -36.5z" />
    <glyph glyph-name="uni2159" unicode="&#x2159;" horiz-adv-x="823" 
d="M129 -10l395 726h57l-395 -726h-57zM136 310v287h-102v40q103 0 112 72h43v-399h-53zM643 -9q-142 0 -142 201q0 103 38.5 159.5t107.5 56.5q100 0 119 -87l-50 -14q-12 54 -69 54q-91 0 -93 -159q29 53 98 53q54 0 89 -34.5t35 -94.5q0 -62 -36 -98.5t-97 -36.5zM643 38
q38 0 59 23t21 62q0 40 -21 64t-59 24q-35 0 -57 -23t-22 -63q0 -38 21.5 -62.5t57.5 -24.5z" />
    <glyph glyph-name="uni215A" unicode="&#x215a;" horiz-adv-x="928" 
d="M238 -10l396 726h57l-395 -726h-58zM177 297q-98 0 -133 89l46 24q29 -65 88 -65q41 0 64 23.5t23 65.5q0 40 -21 63t-61 23q-45 0 -77 -38l-49 12v212h238v-51h-189v-124q38 36 85 36q60 0 95 -35t35 -98q0 -64 -38 -100.5t-106 -36.5zM753 -9q-142 0 -142 201
q0 104 38 160t107 56q99 0 120 -87l-51 -14q-11 54 -69 54q-90 0 -92 -159q29 53 97 53q55 0 89.5 -34t34.5 -95q0 -62 -35.5 -98.5t-96.5 -36.5zM832 123q0 40 -21 64t-58 24q-35 0 -57 -23t-22 -63q0 -38 21.5 -62.5t57.5 -24.5t57.5 23t21.5 62z" />
    <glyph glyph-name="oneeighth" unicode="&#x215b;" horiz-adv-x="816" 
d="M129 -10l395 726h57l-395 -726h-57zM136 310v287h-102v40q103 0 112 72h43v-399h-53zM491 106q0 37 19 64.5t48 39.5q-53 29 -53 89q0 50 34.5 80t91.5 30t91.5 -30t34.5 -81q0 -60 -51 -88q28 -10 46.5 -38t18.5 -66q0 -51 -39 -83t-101 -32t-101 32t-39 83zM707 295
q0 32 -21 50.5t-55 18.5q-36 0 -56 -18t-20 -51q0 -30 21 -48t55 -18t55 18t21 48zM718 108q0 35 -23 56t-64 21t-64 -21t-23 -56q0 -33 23.5 -52t63.5 -19t63.5 19t23.5 52z" />
    <glyph glyph-name="threeeighths" unicode="&#x215c;" horiz-adv-x="917" 
d="M224 -10l396 726h57l-395 -726h-58zM172 299q-113 0 -134 103l50 13q15 -70 86 -70q39 0 62 23t23 62t-22.5 61t-58.5 22q-26 0 -46 -10l-25 32l119 122h-171v51h237v-48l-101 -104q8 0 25 -5q43 -6 69 -38.5t26 -84.5q0 -59 -37.5 -94t-101.5 -35zM735 -9q-63 0 -102 32
t-39 83q0 38 19 65t49 39q-54 28 -54 89q0 50 35 80t92 30t91 -30t34 -81q0 -58 -50 -88q27 -10 45.5 -38t18.5 -66q0 -51 -38.5 -83t-100.5 -32zM735 229q34 0 54.5 17.5t20.5 48.5q0 33 -20.5 51t-54.5 18q-36 0 -56 -18t-20 -51q0 -31 20.5 -48.5t55.5 -17.5zM822 108
q0 35 -23 56t-64 21q-42 0 -65 -21t-23 -56q0 -33 24 -52t64 -19t63.5 19t23.5 52z" />
    <glyph glyph-name="fiveeighths" unicode="&#x215d;" horiz-adv-x="938" 
d="M238 -10l396 726h57l-395 -726h-58zM177 297q-98 0 -133 89l46 24q29 -65 88 -65q41 0 64 23.5t23 65.5q0 40 -21 63t-61 23q-45 0 -77 -38l-49 12v212h238v-51h-189v-124q38 36 85 36q60 0 95 -35t35 -98q0 -64 -38 -100.5t-106 -36.5zM757 -9q-63 0 -101.5 32t-38.5 83
q0 78 67 104q-54 28 -54 89q0 50 35 80t92 30t91 -30t34 -81q0 -58 -50 -88q27 -10 45.5 -38t18.5 -66q0 -51 -38.5 -83t-100.5 -32zM757 229q34 0 54.5 17.5t20.5 48.5q0 33 -20.5 51t-54.5 18q-36 0 -56 -18t-20 -51q0 -31 20.5 -48.5t55.5 -17.5zM844 108q0 35 -23 56
t-64 21q-42 0 -65 -21t-23 -56q0 -33 24 -52t64 -19t63.5 19t23.5 52z" />
    <glyph glyph-name="seveneighths" unicode="&#x215e;" horiz-adv-x="906" 
d="M201 -10l396 726h56l-395 -726h-57zM163 310h-57q0 102 4 130q4 32 27 72q27 47 91 147h-196v50h257l-1 -49l-45 -71q-32 -49 -51 -85q-20 -38 -25 -71q-4 -28 -4 -123zM719 -9q-63 0 -101.5 32t-38.5 83q0 37 19 64.5t48 39.5q-54 28 -54 89q0 50 35 80t92 30t91.5 -30
t34.5 -81q0 -60 -51 -88q28 -10 46.5 -38t18.5 -66q0 -51 -39 -83t-101 -32zM795 295q0 32 -21 50.5t-55 18.5q-36 0 -56 -18t-20 -51q0 -30 21 -48t55 -18t55 18t21 48zM806 108q0 35 -23 56t-64 21t-64 -21t-23 -56q0 -33 23.5 -52t63.5 -19t63.5 19t23.5 52z" />
    <glyph glyph-name="uni215F" unicode="&#x215f;" horiz-adv-x="617" 
d="M140 -10l396 726h57l-395 -726h-58zM148 310v287h-103v40q104 0 113 72h43v-399h-53z" />
    <glyph glyph-name="uni2189" unicode="&#x2189;" horiz-adv-x="952" 
d="M193 299q-74 0 -113.5 56t-39.5 152q0 97 39.5 153t113.5 56q76 0 115 -55.5t39 -153.5q0 -96 -40 -152t-114 -56zM264 -10l396 726h57l-396 -726h-57zM193 349q50 0 75.5 42t25.5 117q0 158 -101 158q-100 0 -100 -158q0 -74 26 -116.5t74 -42.5zM769 -11
q-57 0 -91.5 27.5t-43.5 75.5l50 13q16 -70 87 -70q39 0 61.5 22.5t22.5 62.5q0 39 -22 61t-58 22q-27 0 -47 -10l-25 32l120 122h-172v51h237v-48l-100 -104q7 0 25 -5q43 -6 68.5 -38t25.5 -85q0 -59 -37 -94t-101 -35z" />
    <glyph glyph-name="arrowleft" unicode="&#x2190;" horiz-adv-x="790" 
d="M174 356h576v-89h-576l190 -252h-98l-230 296l229 295h99z" />
    <glyph glyph-name="arrowup" unicode="&#x2191;" horiz-adv-x="660" 
d="M329 714l296 -230v-98l-252 190v-576h-89v576l-250 -190v99z" />
    <glyph glyph-name="arrowright" unicode="&#x2192;" horiz-adv-x="790" 
d="M426 606h99l229 -295l-230 -296h-98l190 252h-576v89h576z" />
    <glyph glyph-name="arrowdown" unicode="&#x2193;" horiz-adv-x="658" 
d="M373 700v-576l252 190v-98l-296 -230l-295 229v99l249 -190v576h90z" />
    <glyph glyph-name="arrowboth" unicode="&#x2194;" horiz-adv-x="1034" 
d="M670 606h99l229 -295l-230 -296h-98l190 252h-686l190 -252h-98l-230 296l229 295h99l-190 -250h686z" />
    <glyph glyph-name="arrowupdn" unicode="&#x2195;" horiz-adv-x="697" 
d="M392 809v-685l252 190v-98l-296 -230l-295 229v99l250 -190v685l-250 -190v99l295 229l296 -230v-98z" />
    <glyph glyph-name="uni2196" unicode="&#x2196;" horiz-adv-x="670" 
d="M233 475l407 -408l-63 -63l-407 406l-39 -310l-70 69l42 372l370 41l70 -70z" />
    <glyph glyph-name="uni2197" unicode="&#x2197;" horiz-adv-x="670" 
d="M567 541l41 -372l-70 -69l-38 311l-408 -407l-63 63l408 408l-310 37l70 70z" />
    <glyph glyph-name="uni2198" unicode="&#x2198;" horiz-adv-x="673" 
d="M503 217l38 311l70 -69l-41 -372l-371 -41l-70 70l311 37l-408 408l63 63z" />
    <glyph glyph-name="uni2199" unicode="&#x2199;" horiz-adv-x="673" 
d="M578 624l63 -63l-408 -408l310 -37l-69 -70l-371 41l-41 372l70 69l38 -311z" />
    <glyph glyph-name="partialdiff" unicode="&#x2202;" horiz-adv-x="641" 
d="M264 -15q-126 0 -185 77q-58 77 -35 207q19 118 97 191q76 73 184 73q123 0 169 -100q-4 104 -64 179q-62 61 -192 104l50 57q133 -40 202 -124q124 -126 83 -356q-26 -148 -106.5 -228t-202.5 -80zM261 62q83 0 139.5 54.5t73.5 149.5q16 90 -18 142.5t-113 52.5
q-81 0 -137.5 -55t-73.5 -149q-16 -92 19 -143.5t110 -51.5z" />
    <glyph glyph-name="emptyset" unicode="&#x2205;" horiz-adv-x="738" 
d="M673 542l-66 -66q68 -83 68 -191q0 -127 -90 -217q-89 -89 -215 -89q-109 0 -192 68l-62 -62l-53 53l63 63q-62 82 -62 184q0 126 89 215q90 90 217 90q101 0 183 -62l67 67zM149 285q0 -67 38 -123l305 305q-56 38 -122 38q-91 0 -156 -65t-65 -155zM370 64q90 0 155 65
t65 156q0 73 -43 131l-308 -308q58 -44 131 -44z" />
    <glyph glyph-name="uni2206" unicode="&#x2206;" horiz-adv-x="811" 
d="M24 0l381 607l382 -607h-763zM150 68h512l-256 416z" />
    <glyph glyph-name="product" unicode="&#x220f;" horiz-adv-x="627" 
d="M53 714h515v-88h-64v-626h-88v626h-203v-626h-88v626h-72v88z" />
    <glyph glyph-name="summation" unicode="&#x2211;" horiz-adv-x="587" 
d="M54 0v94l288 267l-288 256v97h481v-81h-363l260 -246v-51l-262 -255h366v-81h-482z" />
    <glyph glyph-name="minus" unicode="&#x2212;" horiz-adv-x="578" 
d="M81 220v75h416v-75h-416z" />
    <glyph glyph-name="radical" unicode="&#x221a;" horiz-adv-x="547" 
d="M177 0l-154 399h102l105 -305l210 620h101l-260 -714h-104z" />
    <glyph glyph-name="infinity" unicode="&#x221e;" horiz-adv-x="863" 
d="M630 512q75 0 123 -50q49 -49 49 -122q0 -74 -48 -123q-48 -50 -119 -50q-52 0 -96 29q-41 28 -104 94q-28 -32 -49 -53q-20 -20 -41 -36q-42 -34 -105 -34q-77 0 -128 48q-51 49 -51 124q0 74 49 123q50 51 123 51q46 0 91 -25q17 -9 41 -31l33 -32l36 -39l14 16l15 18
l15 17q7 8 12 12.5t11 9t12 10.5q9 8 41 25q28 18 76 18zM241 229q29 0 54 15q27 15 42 30q2 2 56 60q-31 33 -66 68q-49 49 -93 49t-73 -32t-29 -80t30.5 -79t78.5 -31zM629 229q43 0 73 31.5t30 81.5q0 48 -28.5 78.5t-74.5 30.5q-17 0 -35 -6q-13 -4 -32 -21
q-8 -6 -35 -36q-5 -5 -24 -26t-23 -26q65 -67 90 -86q27 -21 59 -21z" />
    <glyph glyph-name="integral" unicode="&#x222b;" horiz-adv-x="471" 
d="M343 764h128v-81h-116q-75 0 -75 -85v-659q0 -71 -40 -112.5t-113 -41.5h-127v80h115q75 0 75 86v658q0 71 40 113t113 42z" />
    <glyph glyph-name="approxequal" unicode="&#x2248;" horiz-adv-x="532" 
d="M106 289l-30 65q32 71 104 71q36 0 92 -37q58 -36 86 -36q18 0 31.5 12t35.5 48l31 -65q-37 -70 -98 -70q-34 0 -89 36q-55 37 -86 37q-52 0 -77 -61zM106 102l-30 65q32 71 104 71q36 0 92 -37q58 -36 86 -36q18 0 31.5 12t35.5 48l31 -65q-37 -70 -98 -70q-34 0 -89 36
q-55 37 -86 37q-52 0 -77 -61z" />
    <glyph glyph-name="notequal" unicode="&#x2260;" horiz-adv-x="552" 
d="M472 395v-76h-117l-74 -126h191v-76h-236l-47 -79h-78l47 79h-78v76h123l74 126h-197v76h242l44 74h78l-44 -74h72z" />
    <glyph glyph-name="lessequal" unicode="&#x2264;" horiz-adv-x="532" 
d="M140 367l318 -177v-74l-391 216v71l391 214v-74zM59 66h401v-66h-401v66z" />
    <glyph glyph-name="greaterequal" unicode="&#x2265;" horiz-adv-x="532" 
d="M74 116v74l318 177l-318 176v74l391 -214v-71zM72 0v66h401v-66h-401z" />
    <glyph glyph-name="uni22C6" unicode="&#x22c6;" horiz-adv-x="643" 
d="M505 106l-184 130l-184 -129l75 217l-177 129h219l67 198l68 -198h219l-179 -132z" />
    <glyph glyph-name="lozenge" unicode="&#x25ca;" horiz-adv-x="711" 
d="M355 619l328 -327l-328 -327l-327 327zM355 530l-238 -238l238 -238l239 238z" />
    <glyph glyph-name="uni2912" unicode="&#x2912;" horiz-adv-x="867" 
d="M434 737q153 0 265 -112t112 -268q0 -155 -111 -267q-111 -111 -266 -111q-157 0 -268 111q-110 112 -110 267q0 156 110 268q111 112 268 112zM434 660q-124 0 -213 -89q-88 -88 -88 -214q0 -125 88 -213t213 -88q123 0 211 88q89 89 89 213q0 125 -87 214t-213 89z
M581 489h-294v54h294v-54zM281 290v59l153 107l151 -107v-58l-124 84v-255h-54v255z" />
    <glyph glyph-name="uni2913" unicode="&#x2913;" horiz-adv-x="867" 
d="M434 -21q-157 0 -268 111q-110 113 -110 269q0 155 110 267q111 111 268 111q155 0 266 -112q111 -111 111 -266q0 -156 -112 -268t-265 -112zM434 56q126 0 213 88t87 215q0 123 -89 212t-211 89q-125 0 -213 -88t-88 -213q0 -126 88 -214q89 -89 213 -89zM434 260
l-153 107v59l126 -85v255h54v-255l124 84v-58zM287 173v54h294v-54h-294z" />
    <glyph glyph-name="uniE000" unicode="&#xe000;" horiz-adv-x="759" 
d="M379 57l-248 87q-34 12 -56 39t-22 59v257q0 32 22 59.5t56 39.5l248 86l250 -86q33 -11 55 -39t22 -60v-257q0 -32 -21.5 -59.5t-55.5 -38.5zM258 393q22 0 67 17l37 15l-1 3q-1 3 -2.5 6t-1.5 4l-37 -15q-39 -15 -63 -15h-10l48 133q18 2 21 2q27 0 33 -14l10 7
q-9 19 -43 19q-71 0 -99 -79q-9 -26 -9 -41q0 -42 50 -42zM152 192q58 0 172 125l29 31h133l-28 -72q-3 -8 -3 -15q0 -14 10 -23t26 -9q14 0 38 10l134 52l-5 12l-140 -55q-6 0 -6 9q0 4 2 8l72 195q3 10 3 18q0 19 -13 30.5t-35 11.5h-50q-67 -71 -142 -159
q-104 0 -170 -24q-40 -15 -61 -39t-21 -51q0 -24 15.5 -39.5t39.5 -15.5zM366 361l130 147h40q2 -6 2 -11q0 -2 -2 -10l-46 -126h-124zM152 203q-19 0 -30.5 12t-11.5 31q0 23 18.5 45t53.5 34q66 23 156 23l-23 -23q-66 -68 -101 -95t-62 -27z" />
    <glyph glyph-name="NULL" 
 />
    <glyph glyph-name="CR" horiz-adv-x="333" 
 />
    <glyph glyph-name="Q.ss04" horiz-adv-x="814" 
d="M731 -47l24 -61q-49 -31 -102 -31q-58 0 -93 33t-53 105q-43 -13 -99 -13q-158 0 -254 105q-96 107 -96 266t96 266q97 106 254 106q156 0 252 -106q96 -107 96 -266q0 -110 -47 -196.5t-131 -132.5q10 -51 28 -75t54 -24t71 24zM408 70q44 0 81 12q-15 61 -36.5 88.5
t-61.5 27.5q-38 0 -61.5 -17.5t-41.5 -58.5l-55 26q39 120 161 120q65 0 104.5 -36.5t60.5 -113.5q108 83 108 239q0 128 -73 208q-72 82 -186 82q-115 0 -188 -82q-72 -81 -72 -208q0 -126 71 -209q72 -82 189 -78z" />
    <glyph glyph-name="R.ss02" horiz-adv-x="694" 
d="M647 0h-75q-24 0 -59 11q-5 2 -12 7t-12 10t-13 13.5t-10 10.5q-16 20 -54 84l-37 62l-45 76h-132v-274h-92v712h274q105 0 173 -53t68 -164q0 -91 -49 -147t-141 -66q6 -9 40 -68l30 -52q8 -15 22 -35q19 -27 36 -37q15 -8 48 -8h40v-82zM198 358h163q166 0 166 135
q0 138 -168 138h-161v-273z" />
    <glyph glyph-name="a.ss01" horiz-adv-x="655" 
d="M292 -15q-110 0 -175 78q-65 79 -65 208q0 120 63 204t178 84q128 0 178 -101v85h75v-391q0 -40 9 -56.5t32 -16.5h41v-79h-62q-40 0 -65 24t-30 71q-20 -48 -65.5 -79t-113.5 -31zM302 61q158 0 158 212q0 102 -40.5 156t-115.5 54q-72 0 -115.5 -56.5t-43.5 -155.5
q0 -95 41.5 -152.5t115.5 -57.5z" />
    <glyph glyph-name="a.ss02" horiz-adv-x="596" 
d="M232 -15q-89 0 -139.5 47t-50.5 125q0 79 52.5 127.5t139.5 48.5q118 0 176 -60v90q0 52 -24 76.5t-77 24.5h-218v79h216q192 0 192 -181v-239q0 -43 33 -43h49v-80h-71q-44 0 -64.5 17t-28.5 63q-17 -44 -67.5 -69.5t-117.5 -25.5zM259 58q64 0 107 37q44 38 44 82v27
q-55 58 -148 58q-60 0 -94.5 -28t-34.5 -75q0 -46 33.5 -73.5t92.5 -27.5z" />
    <glyph glyph-name="aacute.ss01" horiz-adv-x="655" 
d="M262 604l91 137h93l-109 -137h-75zM292 -15q-110 0 -175 78q-65 79 -65 208q0 120 63 204t178 84q128 0 178 -101v85h75v-391q0 -40 9 -56.5t32 -16.5h41v-79h-62q-40 0 -65 24t-30 71q-20 -48 -65.5 -79t-113.5 -31zM302 61q158 0 158 212q0 102 -40.5 156t-115.5 54
q-72 0 -115.5 -56.5t-43.5 -155.5q0 -95 41.5 -152.5t115.5 -57.5z" />
    <glyph glyph-name="aacute.ss02" horiz-adv-x="596" 
d="M235 610l91 137h93l-109 -137h-75zM232 -15q-89 0 -139.5 47t-50.5 125q0 79 52.5 127.5t139.5 48.5q118 0 176 -60v90q0 52 -24 76.5t-77 24.5h-218v79h216q192 0 192 -181v-239q0 -43 33 -43h49v-80h-71q-44 0 -64.5 17t-28.5 63q-17 -44 -67.5 -69.5t-117.5 -25.5z
M259 58q64 0 107 37q44 38 44 82v27q-55 58 -148 58q-60 0 -94.5 -28t-34.5 -75q0 -46 33.5 -73.5t92.5 -27.5z" />
    <glyph glyph-name="abreve.ss01" horiz-adv-x="655" 
d="M131 743h65q8 -35 38.5 -55t65.5 -20t65.5 20t38.5 55h65q-10 -55 -54 -91.5t-115 -36.5t-115 36.5t-54 91.5zM292 -15q-110 0 -175 78q-65 79 -65 208q0 120 63 204t178 84q128 0 178 -101v85h75v-391q0 -40 9 -56.5t32 -16.5h41v-79h-62q-40 0 -65 24t-30 71
q-20 -48 -65.5 -79t-113.5 -31zM302 61q158 0 158 212q0 102 -40.5 156t-115.5 54q-72 0 -115.5 -56.5t-43.5 -155.5q0 -95 41.5 -152.5t115.5 -57.5z" />
    <glyph glyph-name="abreve.ss02" horiz-adv-x="596" 
d="M104 749h65q6 -35 37.5 -55t66.5 -20t66 20t37 55h66q-10 -55 -54 -91.5t-115 -36.5t-115 36.5t-54 91.5zM232 -15q-89 0 -139.5 47t-50.5 125q0 79 52.5 127.5t139.5 48.5q118 0 176 -60v90q0 52 -24 76.5t-77 24.5h-218v79h216q192 0 192 -181v-239q0 -43 33 -43h49
v-80h-71q-44 0 -64.5 17t-28.5 63q-17 -44 -67.5 -69.5t-117.5 -25.5zM259 58q64 0 107 37q44 38 44 82v27q-55 58 -148 58q-60 0 -94.5 -28t-34.5 -75q0 -46 33.5 -73.5t92.5 -27.5z" />
    <glyph glyph-name="uni1EAF.ss01" horiz-adv-x="655" 
d="M267 733l58 89h74l-70 -89h-62zM131 743h65q8 -35 38.5 -55t65.5 -20t65.5 20t38.5 55h65q-10 -55 -54 -91.5t-115 -36.5t-115 36.5t-54 91.5zM292 -15q-110 0 -175 78q-65 79 -65 208q0 120 63 204t178 84q128 0 178 -101v85h75v-391q0 -40 9 -56.5t32 -16.5h41v-79h-62
q-40 0 -65 24t-30 71q-20 -48 -65.5 -79t-113.5 -31zM302 61q158 0 158 212q0 102 -40.5 156t-115.5 54q-72 0 -115.5 -56.5t-43.5 -155.5q0 -95 41.5 -152.5t115.5 -57.5z" />
    <glyph glyph-name="uni1EAF.ss02" horiz-adv-x="596" 
d="M240 739l58 88h74l-70 -88h-62zM104 749h65q6 -35 37.5 -55t66.5 -20t66 20t37 55h66q-10 -55 -54 -91.5t-115 -36.5t-115 36.5t-54 91.5zM232 -15q-89 0 -139.5 47t-50.5 125q0 79 52.5 127.5t139.5 48.5q118 0 176 -60v90q0 52 -24 76.5t-77 24.5h-218v79h216
q192 0 192 -181v-239q0 -43 33 -43h49v-80h-71q-44 0 -64.5 17t-28.5 63q-17 -44 -67.5 -69.5t-117.5 -25.5zM259 58q64 0 107 37q44 38 44 82v27q-55 58 -148 58q-60 0 -94.5 -28t-34.5 -75q0 -46 33.5 -73.5t92.5 -27.5z" />
    <glyph glyph-name="uni1EB7.ss01" horiz-adv-x="655" 
d="M131 743h65q8 -35 38.5 -55t65.5 -20t65.5 20t38.5 55h65q-10 -55 -54 -91.5t-115 -36.5t-115 36.5t-54 91.5zM292 -15q-110 0 -175 78q-65 79 -65 208q0 120 63 204t178 84q128 0 178 -101v85h75v-391q0 -40 9 -56.5t32 -16.5h41v-79h-62q-40 0 -65 24t-30 71
q-20 -48 -65.5 -79t-113.5 -31zM302 61q158 0 158 212q0 102 -40.5 156t-115.5 54q-72 0 -115.5 -56.5t-43.5 -155.5q0 -95 41.5 -152.5t115.5 -57.5zM281 -152v107h92v-107h-92z" />
    <glyph glyph-name="uni1EB7.ss02" horiz-adv-x="596" 
d="M104 749h65q6 -35 37.5 -55t66.5 -20t66 20t37 55h66q-10 -55 -54 -91.5t-115 -36.5t-115 36.5t-54 91.5zM232 -15q-89 0 -139.5 47t-50.5 125q0 79 52.5 127.5t139.5 48.5q118 0 176 -60v90q0 52 -24 76.5t-77 24.5h-218v79h216q192 0 192 -181v-239q0 -43 33 -43h49
v-80h-71q-44 0 -64.5 17t-28.5 63q-17 -44 -67.5 -69.5t-117.5 -25.5zM259 58q64 0 107 37q44 38 44 82v27q-55 58 -148 58q-60 0 -94.5 -28t-34.5 -75q0 -46 33.5 -73.5t92.5 -27.5zM259 -155v107h92v-107h-92z" />
    <glyph glyph-name="uni1EB1.ss01" horiz-adv-x="655" 
d="M204 818h74l58 -88h-61zM131 743h65q8 -35 38.5 -55t65.5 -20t65.5 20t38.5 55h65q-10 -55 -54 -91.5t-115 -36.5t-115 36.5t-54 91.5zM292 -15q-110 0 -175 78q-65 79 -65 208q0 120 63 204t178 84q128 0 178 -101v85h75v-391q0 -40 9 -56.5t32 -16.5h41v-79h-62
q-40 0 -65 24t-30 71q-20 -48 -65.5 -79t-113.5 -31zM302 61q158 0 158 212q0 102 -40.5 156t-115.5 54q-72 0 -115.5 -56.5t-43.5 -155.5q0 -95 41.5 -152.5t115.5 -57.5z" />
    <glyph glyph-name="uni1EB1.ss02" horiz-adv-x="596" 
d="M177 824h74l58 -88h-62zM104 749h65q6 -35 37.5 -55t66.5 -20t66 20t37 55h66q-10 -55 -54 -91.5t-115 -36.5t-115 36.5t-54 91.5zM232 -15q-89 0 -139.5 47t-50.5 125q0 79 52.5 127.5t139.5 48.5q118 0 176 -60v90q0 52 -24 76.5t-77 24.5h-218v79h216q192 0 192 -181
v-239q0 -43 33 -43h49v-80h-71q-44 0 -64.5 17t-28.5 63q-17 -44 -67.5 -69.5t-117.5 -25.5zM259 58q64 0 107 37q44 38 44 82v27q-55 58 -148 58q-60 0 -94.5 -28t-34.5 -75q0 -46 33.5 -73.5t92.5 -27.5z" />
    <glyph glyph-name="uni1EB3.ss01" horiz-adv-x="655" 
d="M310 910q40 0 66.5 -18t26.5 -51q0 -72 -80 -64v-45h-49v59l-1 19q31 -5 53 3.5t22 26.5q0 32 -51 32q-22 0 -48 -14l-16 34q36 18 77 18zM131 743h65q8 -35 38.5 -55t65.5 -20t65.5 20t38.5 55h65q-10 -55 -54 -91.5t-115 -36.5t-115 36.5t-54 91.5zM292 -15
q-110 0 -175 78q-65 79 -65 208q0 120 63 204t178 84q128 0 178 -101v85h75v-391q0 -40 9 -56.5t32 -16.5h41v-79h-62q-40 0 -65 24t-30 71q-20 -48 -65.5 -79t-113.5 -31zM302 61q158 0 158 212q0 102 -40.5 156t-115.5 54q-72 0 -115.5 -56.5t-43.5 -155.5
q0 -95 41.5 -152.5t115.5 -57.5z" />
    <glyph glyph-name="uni1EB3.ss02" horiz-adv-x="596" 
d="M283 916q40 0 66.5 -18t26.5 -52q0 -69 -80 -64v-45h-49v60l-2 18q32 -4 54 4t22 26q0 32 -51 32q-26 0 -48 -13l-16 33q34 19 77 19zM104 749h65q6 -35 37.5 -55t66.5 -20t66 20t37 55h66q-10 -55 -54 -91.5t-115 -36.5t-115 36.5t-54 91.5zM232 -15q-89 0 -139.5 47
t-50.5 125q0 79 52.5 127.5t139.5 48.5q118 0 176 -60v90q0 52 -24 76.5t-77 24.5h-218v79h216q192 0 192 -181v-239q0 -43 33 -43h49v-80h-71q-44 0 -64.5 17t-28.5 63q-17 -44 -67.5 -69.5t-117.5 -25.5zM259 58q64 0 107 37q44 38 44 82v27q-55 58 -148 58
q-60 0 -94.5 -28t-34.5 -75q0 -46 33.5 -73.5t92.5 -27.5z" />
    <glyph glyph-name="uni1EB5.ss01" horiz-adv-x="655" 
d="M383 779q-29 0 -81 26q-51 27 -74 27q-34 0 -42 -41h-55q6 51 31 78.5t62 27.5q30 0 80 -27q52 -26 73 -26q36 0 44 41h54q-7 -52 -31 -79t-61 -27zM131 743h65q8 -35 38.5 -55t65.5 -20t65.5 20t38.5 55h65q-10 -55 -54 -91.5t-115 -36.5t-115 36.5t-54 91.5zM292 -15
q-110 0 -175 78q-65 79 -65 208q0 120 63 204t178 84q128 0 178 -101v85h75v-391q0 -40 9 -56.5t32 -16.5h41v-79h-62q-40 0 -65 24t-30 71q-20 -48 -65.5 -79t-113.5 -31zM302 61q158 0 158 212q0 102 -40.5 156t-115.5 54q-72 0 -115.5 -56.5t-43.5 -155.5
q0 -95 41.5 -152.5t115.5 -57.5z" />
    <glyph glyph-name="uni1EB5.ss02" horiz-adv-x="596" 
d="M356 784q-30 0 -81 27t-74 27q-16 0 -27 -11t-15 -31h-55q6 52 31 79.5t62 27.5q31 0 80 -27q52 -26 73 -26q36 0 44 41h54q-6 -52 -30.5 -79.5t-61.5 -27.5zM104 749h65q6 -35 37.5 -55t66.5 -20t66 20t37 55h66q-10 -55 -54 -91.5t-115 -36.5t-115 36.5t-54 91.5z
M232 -15q-89 0 -139.5 47t-50.5 125q0 79 52.5 127.5t139.5 48.5q118 0 176 -60v90q0 52 -24 76.5t-77 24.5h-218v79h216q192 0 192 -181v-239q0 -43 33 -43h49v-80h-71q-44 0 -64.5 17t-28.5 63q-17 -44 -67.5 -69.5t-117.5 -25.5zM259 58q64 0 107 37q44 38 44 82v27
q-55 58 -148 58q-60 0 -94.5 -28t-34.5 -75q0 -46 33.5 -73.5t92.5 -27.5z" />
    <glyph glyph-name="acircumflex.ss01" horiz-adv-x="655" 
d="M129 603l137 144h77l136 -144h-86l-89 95l-90 -95h-85zM292 -15q-110 0 -175 78q-65 79 -65 208q0 120 63 204t178 84q128 0 178 -101v85h75v-391q0 -40 9 -56.5t32 -16.5h41v-79h-62q-40 0 -65 24t-30 71q-20 -48 -65.5 -79t-113.5 -31zM302 61q158 0 158 212
q0 102 -40.5 156t-115.5 54q-72 0 -115.5 -56.5t-43.5 -155.5q0 -95 41.5 -152.5t115.5 -57.5z" />
    <glyph glyph-name="acircumflex.ss02" horiz-adv-x="596" 
d="M102 609l136 144h78l136 -144h-86l-89 95l-90 -95h-85zM232 -15q-89 0 -139.5 47t-50.5 125q0 79 52.5 127.5t139.5 48.5q118 0 176 -60v90q0 52 -24 76.5t-77 24.5h-218v79h216q192 0 192 -181v-239q0 -43 33 -43h49v-80h-71q-44 0 -64.5 17t-28.5 63
q-17 -44 -67.5 -69.5t-117.5 -25.5zM259 58q64 0 107 37q44 38 44 82v27q-55 58 -148 58q-60 0 -94.5 -28t-34.5 -75q0 -46 33.5 -73.5t92.5 -27.5z" />
    <glyph glyph-name="uni1EA5.ss01" horiz-adv-x="655" 
d="M378 746l59 88h74l-71 -88h-62zM129 603l137 144h77l136 -144h-86l-89 95l-90 -95h-85zM292 -15q-110 0 -175 78q-65 79 -65 208q0 120 63 204t178 84q128 0 178 -101v85h75v-391q0 -40 9 -56.5t32 -16.5h41v-79h-62q-40 0 -65 24t-30 71q-20 -48 -65.5 -79t-113.5 -31z
M302 61q158 0 158 212q0 102 -40.5 156t-115.5 54q-72 0 -115.5 -56.5t-43.5 -155.5q0 -95 41.5 -152.5t115.5 -57.5z" />
    <glyph glyph-name="uni1EA5.ss02" horiz-adv-x="596" 
d="M351 752l59 88h73l-70 -88h-62zM102 609l136 144h78l136 -144h-86l-89 95l-90 -95h-85zM232 -15q-89 0 -139.5 47t-50.5 125q0 79 52.5 127.5t139.5 48.5q118 0 176 -60v90q0 52 -24 76.5t-77 24.5h-218v79h216q192 0 192 -181v-239q0 -43 33 -43h49v-80h-71
q-44 0 -64.5 17t-28.5 63q-17 -44 -67.5 -69.5t-117.5 -25.5zM259 58q64 0 107 37q44 38 44 82v27q-55 58 -148 58q-60 0 -94.5 -28t-34.5 -75q0 -46 33.5 -73.5t92.5 -27.5z" />
    <glyph glyph-name="uni1EAD.ss01" horiz-adv-x="655" 
d="M129 603l137 144h77l136 -144h-86l-89 95l-90 -95h-85zM292 -15q-110 0 -175 78q-65 79 -65 208q0 120 63 204t178 84q128 0 178 -101v85h75v-391q0 -40 9 -56.5t32 -16.5h41v-79h-62q-40 0 -65 24t-30 71q-20 -48 -65.5 -79t-113.5 -31zM302 61q158 0 158 212
q0 102 -40.5 156t-115.5 54q-72 0 -115.5 -56.5t-43.5 -155.5q0 -95 41.5 -152.5t115.5 -57.5zM281 -152v107h92v-107h-92z" />
    <glyph glyph-name="uni1EAD.ss02" horiz-adv-x="596" 
d="M102 609l136 144h78l136 -144h-86l-89 95l-90 -95h-85zM232 -15q-89 0 -139.5 47t-50.5 125q0 79 52.5 127.5t139.5 48.5q118 0 176 -60v90q0 52 -24 76.5t-77 24.5h-218v79h216q192 0 192 -181v-239q0 -43 33 -43h49v-80h-71q-44 0 -64.5 17t-28.5 63
q-17 -44 -67.5 -69.5t-117.5 -25.5zM259 58q64 0 107 37q44 38 44 82v27q-55 58 -148 58q-60 0 -94.5 -28t-34.5 -75q0 -46 33.5 -73.5t92.5 -27.5zM259 -155v107h92v-107h-92z" />
    <glyph glyph-name="uni1EA7.ss01" horiz-adv-x="655" 
d="M314 836h74l59 -88h-62zM129 603l137 144h77l136 -144h-86l-89 95l-90 -95h-85zM292 -15q-110 0 -175 78q-65 79 -65 208q0 120 63 204t178 84q128 0 178 -101v85h75v-391q0 -40 9 -56.5t32 -16.5h41v-79h-62q-40 0 -65 24t-30 71q-20 -48 -65.5 -79t-113.5 -31zM302 61
q158 0 158 212q0 102 -40.5 156t-115.5 54q-72 0 -115.5 -56.5t-43.5 -155.5q0 -95 41.5 -152.5t115.5 -57.5z" />
    <glyph glyph-name="uni1EA7.ss02" horiz-adv-x="596" 
d="M287 842h74l58 -88h-61zM102 609l136 144h78l136 -144h-86l-89 95l-90 -95h-85zM232 -15q-89 0 -139.5 47t-50.5 125q0 79 52.5 127.5t139.5 48.5q118 0 176 -60v90q0 52 -24 76.5t-77 24.5h-218v79h216q192 0 192 -181v-239q0 -43 33 -43h49v-80h-71q-44 0 -64.5 17
t-28.5 63q-17 -44 -67.5 -69.5t-117.5 -25.5zM259 58q64 0 107 37q44 38 44 82v27q-55 58 -148 58q-60 0 -94.5 -28t-34.5 -75q0 -46 33.5 -73.5t92.5 -27.5z" />
    <glyph glyph-name="uni1EA9.ss01" horiz-adv-x="655" 
d="M424 903q40 0 66.5 -18t26.5 -52q0 -69 -80 -64v-45h-49v60l-2 19q31 -5 53.5 3t22.5 26q0 32 -51 32q-26 0 -48 -13l-16 34q36 18 77 18zM129 603l137 144h77l136 -144h-86l-89 95l-90 -95h-85zM292 -15q-110 0 -175 78q-65 79 -65 208q0 120 63 204t178 84
q128 0 178 -101v85h75v-391q0 -40 9 -56.5t32 -16.5h41v-79h-62q-40 0 -65 24t-30 71q-20 -48 -65.5 -79t-113.5 -31zM302 61q158 0 158 212q0 102 -40.5 156t-115.5 54q-72 0 -115.5 -56.5t-43.5 -155.5q0 -95 41.5 -152.5t115.5 -57.5z" />
    <glyph glyph-name="uni1EA9.ss02" horiz-adv-x="596" 
d="M397 909q40 0 66.5 -18t26.5 -52q0 -69 -81 -64v-45h-48v60l-2 18q32 -4 54 4t22 26q0 32 -51 32q-26 0 -48 -13l-16 33q34 19 77 19zM102 609l136 144h78l136 -144h-86l-89 95l-90 -95h-85zM232 -15q-89 0 -139.5 47t-50.5 125q0 79 52.5 127.5t139.5 48.5
q118 0 176 -60v90q0 52 -24 76.5t-77 24.5h-218v79h216q192 0 192 -181v-239q0 -43 33 -43h49v-80h-71q-44 0 -64.5 17t-28.5 63q-17 -44 -67.5 -69.5t-117.5 -25.5zM259 58q64 0 107 37q44 38 44 82v27q-55 58 -148 58q-60 0 -94.5 -28t-34.5 -75q0 -46 33.5 -73.5
t92.5 -27.5z" />
    <glyph glyph-name="uni1EAB.ss01" horiz-adv-x="655" 
d="M389 778q-29 0 -81 26q-51 27 -74 27q-34 0 -42 -41h-55q6 52 31 79.5t62 27.5q30 0 80 -27q51 -27 73 -27q36 0 44 41h54q-7 -52 -31 -79t-61 -27zM129 603l137 144h77l136 -144h-86l-89 95l-90 -95h-85zM292 -15q-110 0 -175 78q-65 79 -65 208q0 120 63 204t178 84
q128 0 178 -101v85h75v-391q0 -40 9 -56.5t32 -16.5h41v-79h-62q-40 0 -65 24t-30 71q-20 -48 -65.5 -79t-113.5 -31zM302 61q158 0 158 212q0 102 -40.5 156t-115.5 54q-72 0 -115.5 -56.5t-43.5 -155.5q0 -95 41.5 -152.5t115.5 -57.5z" />
    <glyph glyph-name="uni1EAB.ss02" horiz-adv-x="596" 
d="M362 784q-29 0 -81 26q-51 27 -74 27q-34 0 -42 -41h-55q6 52 31 79t62 27q30 0 80 -27q52 -26 73 -26q36 0 44 41h54q-7 -52 -31 -79t-61 -27zM102 609l136 144h78l136 -144h-86l-89 95l-90 -95h-85zM232 -15q-89 0 -139.5 47t-50.5 125q0 79 52.5 127.5t139.5 48.5
q118 0 176 -60v90q0 52 -24 76.5t-77 24.5h-218v79h216q192 0 192 -181v-239q0 -43 33 -43h49v-80h-71q-44 0 -64.5 17t-28.5 63q-17 -44 -67.5 -69.5t-117.5 -25.5zM259 58q64 0 107 37q44 38 44 82v27q-55 58 -148 58q-60 0 -94.5 -28t-34.5 -75q0 -46 33.5 -73.5
t92.5 -27.5z" />
    <glyph glyph-name="adieresis.ss01" horiz-adv-x="655" 
d="M153 627v95h86v-95h-86zM369 627v95h86v-95h-86zM292 -15q-110 0 -175 78q-65 79 -65 208q0 120 63 204t178 84q128 0 178 -101v85h75v-391q0 -40 9 -56.5t32 -16.5h41v-79h-62q-40 0 -65 24t-30 71q-20 -48 -65.5 -79t-113.5 -31zM302 61q158 0 158 212q0 102 -40.5 156
t-115.5 54q-72 0 -115.5 -56.5t-43.5 -155.5q0 -95 41.5 -152.5t115.5 -57.5z" />
    <glyph glyph-name="adieresis.ss02" horiz-adv-x="596" 
d="M126 633v95h86v-95h-86zM342 633v95h86v-95h-86zM232 -15q-89 0 -139.5 47t-50.5 125q0 79 52.5 127.5t139.5 48.5q118 0 176 -60v90q0 52 -24 76.5t-77 24.5h-218v79h216q192 0 192 -181v-239q0 -43 33 -43h49v-80h-71q-44 0 -64.5 17t-28.5 63q-17 -44 -67.5 -69.5
t-117.5 -25.5zM259 58q64 0 107 37q44 38 44 82v27q-55 58 -148 58q-60 0 -94.5 -28t-34.5 -75q0 -46 33.5 -73.5t92.5 -27.5z" />
    <glyph glyph-name="uni1EA1.ss01" horiz-adv-x="655" 
d="M292 -15q-110 0 -175 78q-65 79 -65 208q0 120 63 204t178 84q128 0 178 -101v85h75v-391q0 -40 9 -56.5t32 -16.5h41v-79h-62q-40 0 -65 24t-30 71q-20 -48 -65.5 -79t-113.5 -31zM302 61q158 0 158 212q0 102 -40.5 156t-115.5 54q-72 0 -115.5 -56.5t-43.5 -155.5
q0 -95 41.5 -152.5t115.5 -57.5zM281 -152v107h92v-107h-92z" />
    <glyph glyph-name="uni1EA1.ss02" horiz-adv-x="596" 
d="M232 -15q-89 0 -139.5 47t-50.5 125q0 79 52.5 127.5t139.5 48.5q118 0 176 -60v90q0 52 -24 76.5t-77 24.5h-218v79h216q192 0 192 -181v-239q0 -43 33 -43h49v-80h-71q-44 0 -64.5 17t-28.5 63q-17 -44 -67.5 -69.5t-117.5 -25.5zM259 58q64 0 107 37q44 38 44 82v27
q-55 58 -148 58q-60 0 -94.5 -28t-34.5 -75q0 -46 33.5 -73.5t92.5 -27.5zM259 -155v107h92v-107h-92z" />
    <glyph glyph-name="agrave.ss01" horiz-adv-x="655" 
d="M268 601l-106 136h93l87 -136h-74zM292 -15q-110 0 -175 78q-65 79 -65 208q0 120 63 204t178 84q128 0 178 -101v85h75v-391q0 -40 9 -56.5t32 -16.5h41v-79h-62q-40 0 -65 24t-30 71q-20 -48 -65.5 -79t-113.5 -31zM302 61q158 0 158 212q0 102 -40.5 156t-115.5 54
q-72 0 -115.5 -56.5t-43.5 -155.5q0 -95 41.5 -152.5t115.5 -57.5z" />
    <glyph glyph-name="agrave.ss02" horiz-adv-x="596" 
d="M241 606l-106 137h93l87 -137h-74zM232 -15q-89 0 -139.5 47t-50.5 125q0 79 52.5 127.5t139.5 48.5q118 0 176 -60v90q0 52 -24 76.5t-77 24.5h-218v79h216q192 0 192 -181v-239q0 -43 33 -43h49v-80h-71q-44 0 -64.5 17t-28.5 63q-17 -44 -67.5 -69.5t-117.5 -25.5z
M259 58q64 0 107 37q44 38 44 82v27q-55 58 -148 58q-60 0 -94.5 -28t-34.5 -75q0 -46 33.5 -73.5t92.5 -27.5z" />
    <glyph glyph-name="uni1EA3.ss01" horiz-adv-x="655" 
d="M316 799q50 0 81.5 -22t31.5 -63q0 -38 -26 -58.5t-71 -18.5v-54h-60l-1 72v23q37 -5 63.5 4.5t26.5 30.5q0 39 -61 39q-27 0 -59 -17l-19 42q40 22 94 22zM292 -15q-110 0 -175 78q-65 79 -65 208q0 120 63 204t178 84q128 0 178 -101v85h75v-391q0 -40 9 -56.5
t32 -16.5h41v-79h-62q-40 0 -65 24t-30 71q-20 -48 -65.5 -79t-113.5 -31zM302 61q158 0 158 212q0 102 -40.5 156t-115.5 54q-72 0 -115.5 -56.5t-43.5 -155.5q0 -95 41.5 -152.5t115.5 -57.5z" />
    <glyph glyph-name="uni1EA3.ss02" horiz-adv-x="596" 
d="M289 805q50 0 81.5 -22t31.5 -63q0 -38 -26 -58.5t-71 -18.5v-54h-60l-1 72v23q38 -5 64 4.5t26 30.5q0 38 -61 38q-31 0 -59 -16l-19 42q40 22 94 22zM232 -15q-89 0 -139.5 47t-50.5 125q0 79 52.5 127.5t139.5 48.5q118 0 176 -60v90q0 52 -24 76.5t-77 24.5h-218v79
h216q192 0 192 -181v-239q0 -43 33 -43h49v-80h-71q-44 0 -64.5 17t-28.5 63q-17 -44 -67.5 -69.5t-117.5 -25.5zM259 58q64 0 107 37q44 38 44 82v27q-55 58 -148 58q-60 0 -94.5 -28t-34.5 -75q0 -46 33.5 -73.5t92.5 -27.5z" />
    <glyph glyph-name="amacron.ss01" horiz-adv-x="655" 
d="M116 629v59h375v-59h-375zM292 -15q-110 0 -175 78q-65 79 -65 208q0 120 63 204t178 84q128 0 178 -101v85h75v-391q0 -40 9 -56.5t32 -16.5h41v-79h-62q-40 0 -65 24t-30 71q-20 -48 -65.5 -79t-113.5 -31zM302 61q158 0 158 212q0 102 -40.5 156t-115.5 54
q-72 0 -115.5 -56.5t-43.5 -155.5q0 -95 41.5 -152.5t115.5 -57.5z" />
    <glyph glyph-name="amacron.ss02" horiz-adv-x="596" 
d="M89 635v59h375v-59h-375zM232 -15q-89 0 -139.5 47t-50.5 125q0 79 52.5 127.5t139.5 48.5q118 0 176 -60v90q0 52 -24 76.5t-77 24.5h-218v79h216q192 0 192 -181v-239q0 -43 33 -43h49v-80h-71q-44 0 -64.5 17t-28.5 63q-17 -44 -67.5 -69.5t-117.5 -25.5zM259 58
q64 0 107 37q44 38 44 82v27q-55 58 -148 58q-60 0 -94.5 -28t-34.5 -75q0 -46 33.5 -73.5t92.5 -27.5z" />
    <glyph glyph-name="aogonek.ss01" horiz-adv-x="655" 
d="M623 -161l14 -43q-33 -15 -77 -15q-52 0 -83 26.5t-31 72.5q0 32 27.5 65t70.5 57q-66 14 -73 93q-20 -48 -65.5 -79t-113.5 -31q-110 0 -175 78q-65 79 -65 208q0 120 63 204t178 84q128 0 178 -101v85h75v-391q0 -40 9 -56.5t32 -16.5h41v-79h-18l18 -4
q-104 -60 -104 -114q0 -24 15 -37.5t39 -13.5q15 0 45 8zM302 61q158 0 158 212q0 102 -40.5 156t-115.5 54q-72 0 -115.5 -56.5t-43.5 -155.5q0 -95 41.5 -152.5t115.5 -57.5z" />
    <glyph glyph-name="aogonek.ss02" horiz-adv-x="596" 
d="M576 -160l14 -43q-38 -15 -78 -15q-52 0 -82.5 26.5t-30.5 72.5q0 31 26.5 63.5t67.5 56.5q-34 2 -51 20t-25 59q-17 -44 -67.5 -69.5t-117.5 -25.5q-89 0 -139.5 47t-50.5 125q0 79 52.5 127.5t139.5 48.5q118 0 176 -60v90q0 52 -24 76.5t-77 24.5h-218v79h216
q192 0 192 -181v-239q0 -43 33 -43h49v-80h-13l13 -3q-104 -59 -104 -114q0 -24 14.5 -37.5t38.5 -13.5q16 0 46 8zM410 177v27q-55 58 -148 58q-60 0 -94.5 -28t-34.5 -75q0 -46 33.5 -73.5t92.5 -27.5q64 0 107 37q44 38 44 82z" />
    <glyph glyph-name="aring.ss01" horiz-adv-x="655" 
d="M304 601q-55 0 -89.5 32.5t-34.5 82.5q0 49 35 82t89 33t89 -33t35 -82q0 -51 -34 -83t-90 -32zM376 716q0 28 -20 47t-52 19t-52 -19t-20 -47q0 -29 20 -47.5t52 -18.5t52 18.5t20 47.5zM292 -15q-110 0 -175 78q-65 79 -65 208q0 120 63 204t178 84q128 0 178 -101v85
h75v-391q0 -40 9 -56.5t32 -16.5h41v-79h-62q-40 0 -65 24t-30 71q-20 -48 -65.5 -79t-113.5 -31zM302 61q158 0 158 212q0 102 -40.5 156t-115.5 54q-72 0 -115.5 -56.5t-43.5 -155.5q0 -95 41.5 -152.5t115.5 -57.5z" />
    <glyph glyph-name="aring.ss02" horiz-adv-x="596" 
d="M153 721q0 50 34.5 83t89.5 33t89.5 -33t34.5 -83q0 -49 -35 -81.5t-89 -32.5t-89 32.5t-35 81.5zM225 674q19 -19 52 -19q32 0 51 19q20 19 20 47t-20 47q-20 20 -51 20q-32 0 -52 -20q-20 -19 -20 -47t20 -47zM232 -15q-89 0 -139.5 47t-50.5 125q0 79 52.5 127.5
t139.5 48.5q118 0 176 -60v90q0 52 -24 76.5t-77 24.5h-218v79h216q192 0 192 -181v-239q0 -43 33 -43h49v-80h-71q-44 0 -64.5 17t-28.5 63q-17 -44 -67.5 -69.5t-117.5 -25.5zM259 58q64 0 107 37q44 38 44 82v27q-55 58 -148 58q-60 0 -94.5 -28t-34.5 -75
q0 -46 33.5 -73.5t92.5 -27.5z" />
    <glyph glyph-name="atilde.ss01" horiz-adv-x="655" 
d="M405 603q-35 0 -101 26q-63 27 -92 27q-45 0 -53 -41h-68q8 52 39 79.5t77 27.5q39 0 100 -27q64 -26 91 -26q46 0 55 41h68q-9 -53 -39.5 -80t-76.5 -27zM292 -15q-110 0 -175 78q-65 79 -65 208q0 120 63 204t178 84q128 0 178 -101v85h75v-391q0 -40 9 -56.5t32 -16.5
h41v-79h-62q-40 0 -65 24t-30 71q-20 -48 -65.5 -79t-113.5 -31zM302 61q158 0 158 212q0 102 -40.5 156t-115.5 54q-72 0 -115.5 -56.5t-43.5 -155.5q0 -95 41.5 -152.5t115.5 -57.5z" />
    <glyph glyph-name="atilde.ss02" horiz-adv-x="596" 
d="M378 609q-35 0 -101 26q-65 27 -92 27q-45 0 -53 -41h-68q8 52 39 79.5t77 27.5q38 0 100 -27q63 -27 91 -27q44 0 55 41h68q-9 -52 -39.5 -79t-76.5 -27zM232 -15q-89 0 -139.5 47t-50.5 125q0 79 52.5 127.5t139.5 48.5q118 0 176 -60v90q0 52 -24 76.5t-77 24.5h-218
v79h216q192 0 192 -181v-239q0 -43 33 -43h49v-80h-71q-44 0 -64.5 17t-28.5 63q-17 -44 -67.5 -69.5t-117.5 -25.5zM259 58q64 0 107 37q44 38 44 82v27q-55 58 -148 58q-60 0 -94.5 -28t-34.5 -75q0 -46 33.5 -73.5t92.5 -27.5z" />
    <glyph glyph-name="g.ss01" horiz-adv-x="605" 
d="M243 53h169q174 0 174 -134q0 -94 -74.5 -144.5t-208.5 -50.5q-122 0 -189 41t-67 118q0 81 72 127q-54 34 -54 98q0 60 59 105q-53 56 -53 140q0 91 62 147t164 56q59 0 108 -20q10 88 103 88h65v-73h-62q-47 0 -57 -43q73 -56 71 -155q0 -92 -63 -149t-165 -57
q-69 0 -121 27q-35 -27 -35 -59t23 -47t79 -15zM297 483q-66 0 -105 -36t-39 -97q0 -62 39 -97.5t105 -35.5q67 0 106.5 35.5t39.5 97.5q-1 61 -40.5 96.5t-105.5 36.5zM305 -204q95 0 144 29.5t49 79.5q0 39 -25 57t-79 18h-147q-41 0 -68 7q-51 -39 -51 -84
q0 -107 177 -107z" />
    <glyph glyph-name="g.ss02" horiz-adv-x="646" 
d="M334 -201h-221v80h218q65 0 101.5 29.5t36.5 88.5v105q-45 -106 -167 -106q-119 0 -183.5 74t-64.5 204q0 132 63.5 207.5t179.5 75.5q125 0 179 -109v95h81v-535q0 -102 -60.5 -155.5t-162.5 -53.5zM311 71q159 0 159 206q0 103 -42 155.5t-117 52.5q-77 0 -120.5 -56
t-43.5 -155q0 -98 43 -150.5t121 -52.5z" />
    <glyph glyph-name="gbreve.ss01" horiz-adv-x="605" 
d="M292 617q-71 0 -115 36.5t-54 91.5h65q6 -35 37.5 -55t66.5 -20t66 20t37 55h66q-10 -55 -54 -91.5t-115 -36.5zM243 53h169q174 0 174 -134q0 -94 -74.5 -144.5t-208.5 -50.5q-122 0 -189 41t-67 118q0 81 72 127q-54 34 -54 98q0 60 59 105q-53 56 -53 140q0 91 62 147
t164 56q59 0 108 -20q10 88 103 88h65v-73h-62q-47 0 -57 -43q73 -56 71 -155q0 -92 -63 -149t-165 -57q-69 0 -121 27q-35 -27 -35 -59t23 -47t79 -15zM297 483q-66 0 -105 -36t-39 -97q0 -62 39 -97.5t105 -35.5q67 0 106.5 35.5t39.5 97.5q-1 61 -40.5 96.5t-105.5 36.5z
M305 -204q95 0 144 29.5t49 79.5q0 39 -25 57t-79 18h-147q-41 0 -68 7q-51 -39 -51 -84q0 -107 177 -107z" />
    <glyph glyph-name="gbreve.ss02" horiz-adv-x="646" 
d="M142 744h66q6 -35 37 -55t66 -20t66.5 20t37.5 55h65q-10 -55 -54 -91.5t-115 -36.5t-115 36.5t-54 91.5zM334 -201h-221v80h218q65 0 101.5 29.5t36.5 88.5v105q-45 -106 -167 -106q-119 0 -183.5 74t-64.5 204q0 132 63.5 207.5t179.5 75.5q125 0 179 -109v95h81v-535
q0 -102 -60.5 -155.5t-162.5 -53.5zM311 71q159 0 159 206q0 103 -42 155.5t-117 52.5q-77 0 -120.5 -56t-43.5 -155q0 -98 43 -150.5t121 -52.5z" />
    <glyph glyph-name="gcircumflex.ss01" horiz-adv-x="605" 
d="M243 53h169q174 0 174 -134q0 -94 -74.5 -144.5t-208.5 -50.5q-122 0 -189 41t-67 118q0 81 72 127q-54 34 -54 98q0 60 59 105q-53 56 -53 140q0 91 62 147t164 56q59 0 108 -20q6 46 36 69h-56l-89 94l-90 -94h-86l137 144h78l126 -133q24 8 47 8h65v-73h-62
q-47 0 -57 -43q73 -56 71 -155q0 -92 -63 -149t-165 -57q-69 0 -121 27q-35 -27 -35 -59t23 -47t79 -15zM297 483q-66 0 -105 -36t-39 -97q0 -62 39 -97.5t105 -35.5q67 0 106.5 35.5t39.5 97.5q-1 61 -40.5 96.5t-105.5 36.5zM305 -204q95 0 144 29.5t49 79.5q0 39 -25 57
t-79 18h-147q-41 0 -68 7q-51 -39 -51 -84q0 -107 177 -107z" />
    <glyph glyph-name="gcircumflex.ss02" horiz-adv-x="646" 
d="M140 604l137 144h77l136 -144h-86l-89 94l-90 -94h-85zM334 -201h-221v80h218q65 0 101.5 29.5t36.5 88.5v105q-45 -106 -167 -106q-119 0 -183.5 74t-64.5 204q0 132 63.5 207.5t179.5 75.5q125 0 179 -109v95h81v-535q0 -102 -60.5 -155.5t-162.5 -53.5zM311 71
q159 0 159 206q0 103 -42 155.5t-117 52.5q-77 0 -120.5 -56t-43.5 -155q0 -98 43 -150.5t121 -52.5z" />
    <glyph glyph-name="uni0123.ss01" horiz-adv-x="605" 
d="M299 788h39l-9 -190h-76zM243 53h169q174 0 174 -134q0 -94 -74.5 -144.5t-208.5 -50.5q-122 0 -189 41t-67 118q0 81 72 127q-54 34 -54 98q0 60 59 105q-53 56 -53 140q0 91 62 147t164 56q59 0 108 -20q10 88 103 88h65v-73h-62q-47 0 -57 -43q73 -56 71 -155
q0 -92 -63 -149t-165 -57q-69 0 -121 27q-35 -27 -35 -59t23 -47t79 -15zM297 483q-66 0 -105 -36t-39 -97q0 -62 39 -97.5t105 -35.5q67 0 106.5 35.5t39.5 97.5q-1 61 -40.5 96.5t-105.5 36.5zM305 -204q95 0 144 29.5t49 79.5q0 39 -25 57t-79 18h-147q-41 0 -68 7
q-51 -39 -51 -84q0 -107 177 -107z" />
    <glyph glyph-name="uni0123.ss02" horiz-adv-x="646" 
d="M357 787l-9 -190h-75l45 190h39zM334 -201h-221v80h218q65 0 101.5 29.5t36.5 88.5v105q-45 -106 -167 -106q-119 0 -183.5 74t-64.5 204q0 132 63.5 207.5t179.5 75.5q125 0 179 -109v95h81v-535q0 -102 -60.5 -155.5t-162.5 -53.5zM311 71q159 0 159 206
q0 103 -42 155.5t-117 52.5q-77 0 -120.5 -56t-43.5 -155q0 -98 43 -150.5t121 -52.5z" />
    <glyph glyph-name="gdotaccent.ss01" horiz-adv-x="605" 
d="M251 745h92v-107h-92v107zM243 53h169q174 0 174 -134q0 -94 -74.5 -144.5t-208.5 -50.5q-122 0 -189 41t-67 118q0 81 72 127q-54 34 -54 98q0 60 59 105q-53 56 -53 140q0 91 62 147t164 56q59 0 108 -20q10 88 103 88h65v-73h-62q-47 0 -57 -43q73 -56 71 -155
q0 -92 -63 -149t-165 -57q-69 0 -121 27q-35 -27 -35 -59t23 -47t79 -15zM297 483q-66 0 -105 -36t-39 -97q0 -62 39 -97.5t105 -35.5q67 0 106.5 35.5t39.5 97.5q-1 61 -40.5 96.5t-105.5 36.5zM305 -204q95 0 144 29.5t49 79.5q0 39 -25 57t-79 18h-147q-41 0 -68 7
q-51 -39 -51 -84q0 -107 177 -107z" />
    <glyph glyph-name="gdotaccent.ss02" horiz-adv-x="646" 
d="M271 637v107h91v-107h-91zM334 -201h-221v80h218q65 0 101.5 29.5t36.5 88.5v105q-45 -106 -167 -106q-119 0 -183.5 74t-64.5 204q0 132 63.5 207.5t179.5 75.5q125 0 179 -109v95h81v-535q0 -102 -60.5 -155.5t-162.5 -53.5zM311 71q159 0 159 206q0 103 -42 155.5
t-117 52.5q-77 0 -120.5 -56t-43.5 -155q0 -98 43 -150.5t121 -52.5z" />
    <glyph glyph-name="i.loclTRK" horiz-adv-x="292" 
d="M90 633v107h92v-107h-92zM254 0h-59q-53 1 -79.5 28.5t-26.5 77.5v437h90v-423q0 -24 8 -32.5t32 -8.5h35v-79z" />
    <glyph glyph-name="germandbls.calt" horiz-adv-x="635" 
d="M406 -9q-71 0 -152 27l19 77q60 -20 122 -20q127 0 127 124q0 80 -72 108q-58 25 -133 27v80q54 5 115 61q61 58 61 139q-33 37 -134 37q-83 0 -128.5 -41.5t-46.5 -119.5l-3 -490h-91v492q0 109 71 175q72 66 196 66q85 0 145.5 -23t82.5 -56q0 -96 -54 -171
q-55 -75 -125 -100q60 -6 130 -47q37 -22 60 -61.5t23 -86.5q0 -93 -55.5 -145t-157.5 -52z" />
    <glyph glyph-name="y.ss02" horiz-adv-x="620" 
d="M441 231v312h90v-543q0 -201 -215 -201h-221v80h218q137 0 137 121v90q-45 -105 -171 -105q-195 0 -195 231v327h89v-312q0 -86 30 -125t101 -39q68 0 102.5 42.5t34.5 121.5z" />
    <glyph glyph-name="yacute.ss02" horiz-adv-x="620" 
d="M361 728h92l-109 -137h-74zM441 231v312h90v-543q0 -201 -215 -201h-221v80h218q137 0 137 121v90q-45 -105 -171 -105q-195 0 -195 231v327h89v-312q0 -86 30 -125t101 -39q68 0 102.5 42.5t34.5 121.5z" />
    <glyph glyph-name="ycircumflex.ss02" horiz-adv-x="620" 
d="M401 590l-89 95l-91 -95h-85l137 144h78l136 -144h-86zM441 231v312h90v-543q0 -201 -215 -201h-221v80h218q137 0 137 121v90q-45 -105 -171 -105q-195 0 -195 231v327h89v-312q0 -86 30 -125t101 -39q68 0 102.5 42.5t34.5 121.5z" />
    <glyph glyph-name="ydieresis.ss02" horiz-adv-x="620" 
d="M161 709h86v-95h-86v95zM377 709h85v-95h-85v95zM441 231v312h90v-543q0 -201 -215 -201h-221v80h218q137 0 137 121v90q-45 -105 -171 -105q-195 0 -195 231v327h89v-312q0 -86 30 -125t101 -39q68 0 102.5 42.5t34.5 121.5z" />
    <glyph glyph-name="uni1EF5.ss02" horiz-adv-x="620" 
d="M441 231v312h90v-543q0 -201 -215 -201h-221v80h218q137 0 137 121v90q-45 -105 -171 -105q-195 0 -195 231v327h89v-312q0 -86 30 -125t101 -39q68 0 102.5 42.5t34.5 121.5zM367 -353h-92v107h92v-107z" />
    <glyph glyph-name="ygrave.ss02" horiz-adv-x="620" 
d="M263 724l87 -137h-74l-106 137h93zM441 231v312h90v-543q0 -201 -215 -201h-221v80h218q137 0 137 121v90q-45 -105 -171 -105q-195 0 -195 231v327h89v-312q0 -86 30 -125t101 -39q68 0 102.5 42.5t34.5 121.5z" />
    </font>
</defs>
</svg>
